<?xml version="1.0" standalone="no"?>
<!DOCTYPE svg PUBLIC "-//W3C//DTD SVG 1.1//EN" "http://www.w3.org/Graphics/SVG/1.1/DTD/svg11.dtd" >
<svg>
<metadata>
Created by FontForge 20110222 at Mon Mar  7 04:40:57 2011
 By www-data
Kinkee  (c) 1999, fontalicious fonts.
</metadata>
<defs>
<font id="Kinkee" horiz-adv-x="269" >
  <font-face 
    font-family="Kinkee"
    font-weight="700"
    font-stretch="normal"
    units-per-em="1000"
    panose-1="0 0 7 0 0 0 0 0 0 0"
    ascent="800"
    descent="-200"
    x-height="515"
    cap-height="752"
    bbox="-74 -316 971 1018"
    underline-thickness="50"
    underline-position="-75"
    unicode-range="U+0020-2122"
  />
    <missing-glyph />
    <glyph glyph-name="space" unicode=" " 
 />
    <glyph glyph-name="exclam" unicode="!" horiz-adv-x="304" 
d="M224 271v373q0 30 -20.5 49t-51.5 19t-51.5 -18.5t-20.5 -49.5v-373q0 -31 20.5 -49.5t51.5 -18.5t51.5 19t20.5 49zM264 129q0 28 -15 46.5t-39 18.5q-45 0 -58 -55v0q-14 55 -58 55q-24 0 -39 -18t-15 -47q0 -49 39 -66l17 -7q44 -18 56 -53q12 34 56 53l17 7
q17 8 28 25.5t11 40.5zM304 129q0 -76 -80 -110l-7 -3q-25 -10 -55 -95q-3 -8 -10 -8q-6 0 -9 8q-19 52 -26 63q-16 27 -54 43q-63 27 -63 102q0 67 50 94q-10 22 -10 48v373q0 49 33 78.5t79 29.5t79 -30t33 -78v-373q0 -26 -10 -47q50 -28 50 -95zM284 129q0 31 -14 52
q-8 11 -24.5 22t-16.5 16q0 2 2 5q13 21 13 47v373q0 39 -27 63.5t-65 24.5q-39 0 -65.5 -24t-26.5 -64v-373q0 -27 13 -47q1 -3 1 -5q0 -5 -14 -15q-18 -12 -26 -24q-14 -20 -14 -51q0 -39 21 -61q10 -10 45 -30q32 -18 45 -38q10 -15 21 -46q14 33 21 46q15 26 36 35l7 3
q68 28 68 91z" />
    <glyph glyph-name="quotedbl" unicode="&#x22;" horiz-adv-x="332" 
d="M292 482v170q0 60 -60 60q-59 0 -60 -60v-17q15 34 47 34q21 0 34.5 -16.5t13.5 -41.5q0 -21 -10 -37t-25 -23l-15 -6q-32 -14 -45 -36v-27q0 -60 60 -60t60 60zM160 482v28q-14 22 -44 35l-15 6q-36 15 -36 60q0 25 14 41.5t35 16.5q30 0 46 -32v15q1 27 -15.5 43.5
t-44.5 16.5q-60 0 -60 -60v-170q0 -60 60 -60q28 0 44 16.5t16 43.5zM0 482v170q0 44 28 72t72 28q42 0 67 -23q25 23 65 23q44 0 72 -28t28 -72v-170q0 -43 -28 -71.5t-72 -28.5q-39 0 -66 23q-27 -23 -66 -23q-44 0 -72 28.5t-28 71.5zM20 482q0 -35 22 -57.5t58 -22.5
q23 0 44 13t23 13q4 0 6 -3q23 -23 59 -23t58 22.5t22 57.5v170q0 36 -22 58t-58 22q-25 0 -45 -14t-21 -14q-4 0 -7 4q-20 24 -59 24q-36 0 -58 -22t-22 -58v-170z" />
    <glyph glyph-name="numbersign" unicode="#" horiz-adv-x="648" 
d="M610 421q-6 48 -54 48h-86l1 185q0 15 -2 24q-2 17 -17 28.5t-34 11.5q-43 0 -44 -48v-201h-96l1 185q0 15 -2 24q-2 17 -17 28.5t-34 11.5q-43 0 -44 -48v-201h-100q-48 0 -42 -48q7 -48 55 -48h86l-1 -134h-100q-48 0 -42 -48q7 -48 55 -48h86l-1 -85q0 -14 1 -24
q2 -17 17.5 -28.5t33.5 -11.5q44 0 44 48l1 101h96l-1 -85q0 -14 1 -24q2 -17 17.5 -28.5t33.5 -11.5q44 0 44 48l1 101h100q48 0 41 48q-6 48 -54 48h-86l1 134h100q48 0 41 48zM427 332q0 -21 -10 -36.5t-25 -22.5l-15 -6q-40 -17 -51 -48q-11 31 -50 48l-16 6
q-35 15 -35 60q0 25 13.5 41.5t35.5 16.5q39 0 52 -50v0q11 50 52 50q22 0 35.5 -16.5t13.5 -42.5zM508 333v-54h46q43 0 70 -30q24 -28 24 -65q0 -34 -20 -56q-22 -25 -61 -25h-61q1 -45 1 -38q0 -111 -85 -111q-46 0 -71 33q-21 28 -21 71v45h-16q1 -45 1 -38
q0 -111 -85 -111q-46 0 -71 33q-21 28 -21 71v45h-45q-44 0 -69.5 29t-25.5 66q0 34 21 57.5t61 23.5h60v54h-45q-44 0 -69.5 29t-25.5 66q0 34 21 57.5t61 23.5h60v161q0 88 84 88q46 0 71 -33q22 -28 22 -71l-1 -145h16v161q0 88 84 88q46 0 71 -33q22 -28 22 -71l-1 -145
h46q43 0 70 -30q24 -28 24 -65q0 -34 -20 -56q-22 -25 -61 -25h-61zM488 353h81q30 0 46 19q16 16 16 42q0 29 -20.5 52t-54.5 23h-56q-10 0 -10 10l1 155q0 84 -73 84q-63 0 -64 -68v-171q0 -10 -10 -10h-36q-10 0 -10 10l1 155q0 84 -73 84q-63 0 -64 -68v-171
q0 -10 -10 -10h-70q-30 0 -46 -17.5t-16 -43.5q0 -29 20 -52t55 -23h65v-94h-80q-30 0 -46 -17.5t-16 -43.5q0 -29 20 -52t55 -23h55q8 0 11 -11q1 -8 0 -26q-1 -27 -1 -28q-1 -84 72 -84q41 0 55 28q10 20 10 63v25q-1 16 -1 23q0 10 10 10h36q8 0 11 -11q1 -8 0 -26
q-1 -27 -1 -28q-1 -84 72 -84q41 0 55 28q10 20 10 63v25q-1 16 -1 23q0 10 10 10h71q30 0 46 19q16 16 16 42q0 29 -20.5 52t-54.5 23h-66v94z" />
    <glyph glyph-name="dollar" unicode="$" horiz-adv-x="487" 
d="M184 257l8 -6q35 -28 60 -28q27 0 27 31q0 3 -4 0q-5 -3 -9 -3q-26 2 -82 6zM294 394q-29 13 -48 13t-19 -10q0 -2 5 0q6 3 9 3q16 -3 53 -6zM447 256q0 71 -64 95q-27 10 -121 16q-65 5 -65 30q0 40 49 40q26 0 72 -21t57 -21q25 0 42 19.5t17 44.5q0 48 -62 78
q-52 25 -115 26q11 23 43 36l13 6q14 6 23 20.5t9 33.5q0 22 -12.5 37t-31.5 15q-37 0 -47 -45v0q-12 45 -47 45q-19 0 -31.5 -14.5t-12.5 -37.5q0 -40 32 -54l14 -6q30 -13 42 -36q-84 -1 -138 -47.5t-54 -120.5q0 -71 65 -95q28 -10 121 -17q64 -4 64 -29q0 -61 -57 -61
q-35 0 -78.5 34.5t-70.5 34.5t-44.5 -22t-17.5 -42q0 -45 71 -80q64 -31 130 -31h8q-12 -21 -42 -33l-13 -6q-14 -6 -22 -19q-10 -16 -10 -34q0 -23 12 -38t32 -15q37 0 47 45v0q11 -45 47 -45q19 0 31.5 15t12.5 37q0 40 -32 54l-14 6q-29 12 -41 34q85 4 137 51.5
t52 116.5zM474 459q0 -55 -43 -86q56 -35 56 -117q0 -64 -35.5 -113.5t-97.5 -74.5q31 -25 31 -74q0 -36 -21 -63q-24 -29 -63 -29q-26 0 -47 15q-20 -15 -47 -15q-39 0 -63 30q-21 26 -21 63q0 40 25 68q-60 20 -101 54q-46 38 -46 81q0 24 15 50q16 30 44 44
q-41 37 -41 103q0 67 38 118q35 49 97 72q-31 29 -31 74q0 36 22.5 64t61.5 28q26 0 47 -14q20 14 47 14q39 0 63 -30q21 -26 21 -62q0 -45 -30 -74q119 -42 119 -126zM454 459q0 38 -35 68t-89 45q-8 2 -9 8q0 6 7 10q37 21 37 69q0 29 -17.5 50.5t-46.5 21.5
q-25 0 -40 -14q-2 -3 -6 -3q-3 0 -18.5 8.5t-29.5 8.5q-29 0 -46.5 -21t-17.5 -51q0 -47 37 -68q7 -5 6 -10q0 -6 -8 -9q-63 -18 -101 -65t-38 -112q0 -66 46 -98q6 -4 6 -7q0 -5 -18 -17q-23 -14 -33 -26q-19 -20 -19 -49q0 -36 44 -70t106 -51q8 -2 9 -8q1 -5 -6 -10
q-31 -21 -31 -64q0 -30 17.5 -51.5t46.5 -21.5q25 0 40 15q2 2 6 2q3 0 18.5 -8.5t29.5 -8.5q29 0 46.5 21.5t17.5 50.5q0 47 -38 68q-7 4 -6 10q0 6 8 8q64 20 101 67t37 109q0 80 -61 107q-8 4 -8 8l28 26t28 62z" />
    <glyph glyph-name="percent" unicode="%" horiz-adv-x="797" 
d="M387 597q0 44 -27 77q-29 37 -78 37q-30 0 -53 -14q-23 14 -52 14q-49 0 -79 -37q-25 -33 -25 -78q0 -81 84 -117q4 0 12 -9q21 -21 60 -81q49 86 73 90q85 36 85 118zM598 656q0 23 -17.5 39.5t-41.5 16.5q-29 0 -46 -32l-313 -588q-10 -19 -10 -37q0 -22 18.5 -38.5
t38.5 -16.5q16 0 26 9q5 4 19 24l318 593q8 15 8 30zM726 176q0 44 -27 77q-29 37 -78 37q-30 0 -53 -14q-23 14 -52 14q-49 0 -79 -37q-26 -33 -26 -78q0 -81 85 -117q4 0 12 -9q21 -21 60 -81q49 86 73 90q85 36 85 118zM331 597q0 -45 -36 -60l-15 -6q-39 -17 -50 -48
q-11 31 -51 48l-15 6q-15 7 -25 23t-10 36q0 26 13.5 42.5t34.5 16.5q41 0 52 -50h1q12 50 52 50q21 0 35 -16.5t14 -41.5zM669 176q0 -45 -35 -60l-15 -6q-39 -17 -50 -48q-12 31 -51 48l-15 6q-15 7 -25 23t-10 36q0 26 13.5 42.5t34.5 16.5q41 0 52 -50h1q12 50 52 50
q21 0 34.5 -16.5t13.5 -41.5zM531 362q19 -1 37 -7q25 8 53 8q85 0 135 -65q42 -54 42 -122q0 -130 -128 -185h-3l-29 -5q-14 -12 -36 -58q-20 -39 -29 -39q-4 0 -7 4q-67 91 -93 98q1 0 2 1l-8 -1q-63 27 -96 74l-38 -71q-41 -67 -106 -67q-48 0 -87 36q-42 38 -42 92
q0 45 49 137q29 51 59 102q-35 57 -77 118q-129 55 -129 184q0 68 41 123q50 65 136 65q27 0 52 -8q25 8 53 8q93 0 144 -76q41 77 113 77q52 0 92 -37t40 -92q0 -33 -17 -64zM633 6l30 4q115 50 115 166q0 62 -38 110q-44 57 -119 57q-26 0 -50 -8h-6q-24 8 -49 8h-1
q-7 0 -10 4t1 10l130 244q15 27 15 55q0 46 -34 77.5t-78 31.5q-41 0 -66 -24q-15 -15 -38 -59q-9 -16 -18 0q-43 82 -135 82q-26 0 -50 -8h-6q-23 8 -49 8q-75 0 -120 -58q-37 -48 -37 -110q0 -115 116 -165q6 -1 90 -131q3 -5 0 -10q-28 -47 -55 -95q-53 -98 -53 -140
q0 -45 34.5 -76.5t74.5 -31.5q32 0 53 16q14 10 37 42l45 85q9 16 18 0q28 -51 93 -79q29 0 99 -93q39 79 59 87z" />
    <glyph glyph-name="ampersand" unicode="&#x26;" horiz-adv-x="501" 
d="M461 168v406q0 37 -21 57.5t-54 20.5q-32 0 -52.5 -19t-22.5 -53h-59q12 9 28 16l15 7q36 15 36 59q0 26 -14 42.5t-35 16.5q-40 0 -52 -50h-1q-11 50 -52 50q-21 0 -34.5 -16.5t-13.5 -42.5q0 -21 10 -37t25 -22l15 -7q17 -7 28 -16h-89q-37 0 -57.5 -21t-20.5 -54
t20.5 -54t57.5 -21h193v-32h-179q-35 0 -54 -20.5t-19 -48.5t18 -47q21 -22 55 -22h179v-32h-200q-34 0 -52.5 -20.5t-18.5 -48.5t18 -47q20 -22 53 -22h99q-13 -11 -31 -19l-15 -7q-35 -15 -35 -59q0 -25 13.5 -41.5t35.5 -16.5q39 0 51 50h1q11 -50 52 -50q22 0 35.5 16.5
t13.5 41.5q0 21 -10 37t-26 22l-15 7q-18 8 -31 19h137q33 0 54 20.5t21 57.5zM98 51q-46 4 -73 38q-25 30 -25 70q0 63 50 93q-31 32 -31 77q0 47 32 79q-51 31 -51 97q0 44 26.5 75.5t70.5 38.5q-8 20 -8 43q0 39 22 67q25 32 66 32q30 0 53 -18q21 18 52 18q67 0 85 -70
q9 1 19 1q50 0 82.5 -32.5t32.5 -85.5v-406q0 -53 -32.5 -85.5t-82.5 -32.5h-25q10 -21 10 -45q0 -38 -24 -68t-65 -30q-29 0 -52 17q-21 -17 -52 -17q-42 0 -67 31q-22 28 -22 67q0 24 9 46zM282 741q-19 0 -35 -10.5t-18 -10.5q-3 0 -6 2q-19 19 -46 19q-31 0 -49.5 -23.5
t-18.5 -55.5q0 -26 13 -47q8 -15 -9 -15q-43 -2 -68 -28.5t-25 -66.5q0 -32 16 -54q9 -14 29 -27q16 -11 16 -15t-6 -8q-36 -25 -36 -72q0 -29 20 -54.5t20 -26.5q0 -4 -7 -7q-52 -22 -52 -82q0 -35 24.5 -62t66.5 -27h3q19 0 9 -15q-14 -22 -14 -50q0 -32 18.5 -55
t50.5 -23q18 0 34 10.5t18 10.5q3 0 6 -3q19 -18 46 -18q31 0 50 23t19 55q0 27 -15 50q-9 15 9 15h41q41 0 68 26.5t27 71.5v406q0 45 -27 71.5t-68 26.5q-1 0 -13 -2q-10 -1 -15 0q-8 1 -9 8q-10 63 -67 63z" />
    <glyph glyph-name="quotesingle" unicode="'" horiz-adv-x="200" 
d="M160 494v170q0 60 -60 60t-60 -60v-170q0 -60 60 -60t60 60zM0 494v170q0 44 28 72t72 28t72 -28t28 -72v-170q0 -44 -28 -72t-72 -28t-72 28t-28 72zM20 494q0 -35 22 -57.5t58 -22.5t58 22.5t22 57.5v170q0 35 -22 57.5t-58 22.5t-58 -22.5t-22 -57.5v-170z" />
    <glyph glyph-name="parenleft" unicode="(" horiz-adv-x="276" 
d="M236 -90q0 8 -25 79q-46 131 -46 296q0 158 52 315q19 58 19 66q0 25 -19 41.5t-45 16.5q-20 0 -33 -13q-45 -47 -75 -204q-25 -128 -25 -222q0 -91 21 -205q23 -132 60 -196q22 -38 52 -38q29 0 46.5 17.5t17.5 46.5zM30 17q-31 138 -31 268q0 98 25 229q33 169 86 225
q24 25 62 25q40 0 70 -25q34 -29 34 -73q0 -15 -21 -79q-50 -151 -50 -302t58 -324q13 -38 13 -51q0 -45 -29.5 -74.5t-74.5 -29.5q-95 0 -142 211zM49 21q44 -195 123 -195q37 0 60.5 23.5t23.5 60.5q0 10 -12 45q-59 176 -59 330t51 309q20 60 20 72q0 35 -25.5 56.5
t-58.5 21.5q-29 0 -47 -19q-50 -51 -81 -214q-25 -130 -25 -226q0 -127 30 -264z" />
    <glyph glyph-name="parenright" unicode=")" horiz-adv-x="276" 
d="M237 285q0 91 -21 205q-23 132 -60 196q-22 38 -52 38q-28 0 -46 -17.5t-18 -46.5q0 -8 25 -79q46 -131 46 -296q0 -158 -52 -315q-19 -58 -19 -66q0 -25 19 -41.5t45 -16.5q20 0 33 13q45 47 75 204q25 128 25 222zM104 -194q-40 0 -70 25q-34 29 -34 73q0 15 21 79
q50 151 50 302t-58 324q-13 38 -13 51q0 45 29.5 74.5t74.5 29.5q93 0 141 -203q32 -138 32 -276q0 -98 -25 -229q-33 -169 -86 -225q-24 -25 -62 -25zM104 -174q29 0 47 19q50 51 81 214q25 130 25 226q0 124 -30 262q-43 197 -123 197q-37 0 -60.5 -23.5t-23.5 -60.5
q0 -10 12 -45q59 -176 59 -330t-51 -309q-20 -60 -20 -72q0 -35 27 -57q24 -21 57 -21z" />
    <glyph glyph-name="asterisk" unicode="*" horiz-adv-x="411" 
d="M411 469q0 -36 -24 -66q-27 -33 -68 -33q-12 0 -24 4q-5 -36 -34 -55q-25 -16 -56 -16q-32 0 -56 16q-29 19 -34 55q-13 -4 -25 -4q-43 0 -68 34q-22 29 -22 65q0 37 30 61q-30 25 -30 62q0 36 22 65q26 33 68 33q12 0 25 -4q5 36 34 56q24 16 56 16t56 -16
q29 -19 34 -56q12 4 24 4q41 0 68 -32q24 -29 24 -66t-30 -62q30 -24 30 -61zM391 469q0 24 -19 42.5t-19 20.5q0 3 6 7q32 20 32 53q0 30 -20.5 54t-51.5 24q-5 0 -17.5 -4t-17.5 -4q-8 0 -8 10q0 33 -23 51q-19 15 -48 15t-48 -15q-23 -18 -23 -52q0 -9 -8 -9
q-5 0 -17.5 4t-18.5 4q-32 0 -52 -26q-18 -22 -18 -52q0 -24 19 -42.5t19 -20.5q0 -3 -6 -7q-32 -20 -32 -53q0 -30 18 -53q20 -26 52 -26q6 0 18.5 4.5t17.5 4.5q8 0 8 -10q0 -33 23 -51q19 -15 48 -15q36 0 53 20q9 11 15 36q5 20 12 20q3 0 14.5 -4.5t19.5 -4.5
q31 0 53 26q19 23 19 53zM371 469q0 -23 -15 -41t-37 -18q-14 0 -33 14l-38 28q1 -8 5 -33q3 -21 3 -30q0 -46 -51 -46t-51 46q0 9 3 30q4 25 5 33q-19 -14 -38.5 -28t-33.5 -14q-22 0 -36 18t-14 41q0 24 28 39q26 11 51 22q-25 11 -52 24.5t-27 37.5q0 23 14 40.5t36 17.5
q14 0 33.5 -13.5t38.5 -27.5q-1 8 -5 33q-3 21 -3 30q0 46 51 46t51 -46q0 -9 -3 -30q-4 -25 -5 -33q19 14 37.5 27.5t33.5 13.5q22 0 37 -17.5t15 -40.5q0 -24 -27 -37.5t-53 -24.5l52 -22q28 -15 28 -39zM277 534q0 42 -35 42q-29 0 -38 -36v0q-9 36 -38 36q-36 0 -36 -43
q0 -15 7.5 -26.5t18.5 -16.5l11 -4q29 -13 37 -35q8 22 37 35l11 4q25 11 25 44z" />
    <glyph glyph-name="plus" unicode="+" horiz-adv-x="610" 
d="M565 213q0 60 -60 60h-145v185q0 60 -60 60t-60 -60v-185h-145q-60 0 -60 -60t60 -60h145v-105q0 -60 60 -60t60 60v105h145q60 0 60 60zM405 113v-65q0 -44 -28 -72t-72 -28t-72 28t-28 72v65h-105q-44 0 -72 28t-28 72t28 72t72 28h105v145q0 44 28 72t72 28t72 -28
t28 -72v-145h105q44 0 72 -28t28 -72t-28 -72t-72 -28h-105zM395 133h115q36 0 58 22.5t22 57.5t-22 57.5t-58 22.5h-115q-10 0 -10 10v155q0 35 -22 57.5t-58 22.5t-58 -22.5t-22 -57.5v-155q0 -10 -10 -10h-115q-36 0 -58 -22.5t-22 -57.5t22 -57.5t58 -22.5h115
q10 0 10 -10v-75q0 -35 22 -57.5t58 -22.5t58 22.5t22 57.5v75q0 10 10 10z" />
    <glyph glyph-name="comma" unicode="," horiz-adv-x="199" 
d="M158 -74v170q0 60 -60 60t-60 -60v-170q0 -60 60 -60t60 60zM-2 -74v170q0 44 28 72t72 28q45 0 72.5 -28t27.5 -72v-170q0 -44 -27.5 -72t-72.5 -28q-44 0 -72 28t-28 72zM18 -74q0 -35 22.5 -57.5t57.5 -22.5q36 0 58 22.5t22 57.5v170q0 35 -22 57.5t-58 22.5
q-35 0 -57.5 -22.5t-22.5 -57.5v-170z" />
    <glyph glyph-name="hyphen" unicode="-" horiz-adv-x="358" 
d="M318 327q0 28 -18.5 46.5t-48.5 18.5q-54 0 -72 -56v0q-16 56 -72 56q-30 0 -48.5 -18.5t-18.5 -46.5q0 -24 15 -43q12 -17 33 -24l21 -7q55 -19 70 -54q16 35 70 54l21 7q48 17 48 67zM251 432q46 0 76.5 -30t30.5 -75q0 -78 -96 -112q-20 -7 -33 -21q-18 -21 -41 -73
q-3 -8 -9 -8t-9 8q-36 81 -73 94q-20 7 -38.5 14.5t-35.5 30.5q-23 29 -23 67q0 45 30.5 75t76.5 30q41 0 72 -25q27 25 72 25zM251 412q-28 0 -49 -15t-23 -15q-3 0 -6 3q-27 27 -66 27q-38 0 -62.5 -24.5t-24.5 -60.5q0 -25 14.5 -49t37.5 -34q10 -3 32 -10q41 -14 75 -85
q34 70 76 85q83 29 83 93q0 37 -24.5 61t-62.5 24z" />
    <glyph glyph-name="hyphen" unicode="&#x2010;" horiz-adv-x="358" 
d="M318 327q0 28 -18.5 46.5t-48.5 18.5q-54 0 -72 -56v0q-16 56 -72 56q-30 0 -48.5 -18.5t-18.5 -46.5q0 -24 15 -43q12 -17 33 -24l21 -7q55 -19 70 -54q16 35 70 54l21 7q48 17 48 67zM251 432q46 0 76.5 -30t30.5 -75q0 -78 -96 -112q-20 -7 -33 -21q-18 -21 -41 -73
q-3 -8 -9 -8t-9 8q-36 81 -73 94q-20 7 -38.5 14.5t-35.5 30.5q-23 29 -23 67q0 45 30.5 75t76.5 30q41 0 72 -25q27 25 72 25zM251 412q-28 0 -49 -15t-23 -15q-3 0 -6 3q-27 27 -66 27q-38 0 -62.5 -24.5t-24.5 -60.5q0 -25 14.5 -49t37.5 -34q10 -3 32 -10q41 -14 75 -85
q34 70 76 85q83 29 83 93q0 37 -24.5 61t-62.5 24z" />
    <glyph glyph-name="period" unicode="." horiz-adv-x="357" 
d="M317 103q0 29 -19 47.5t-49 18.5q-54 0 -71 -56h-1q-15 56 -72 56q-29 0 -48 -18.5t-19 -47.5q0 -23 14 -41t35 -25l21 -8q54 -19 70 -53q15 35 69 53l21 8q49 17 49 66zM249 209q47 0 77.5 -30t30.5 -76q0 -78 -97 -111q-20 -7 -32 -22q-18 -20 -42 -73q-3 -7 -9 -7
t-9 7q-36 82 -72 95q-21 7 -39.5 14.5t-35.5 29.5q-23 30 -23 67q0 45 30.5 75.5t76.5 30.5q42 0 73 -26q26 26 71 26zM249 189q-28 0 -49 -15t-22 -15q-3 0 -6 3q-27 27 -67 27q-38 0 -62.5 -24.5t-24.5 -61.5q0 -25 15 -49t37 -33q11 -4 33 -10q40 -15 74 -86q34 71 77 85
q83 29 83 93q0 37 -25 61.5t-63 24.5z" />
    <glyph glyph-name="slash" unicode="/" horiz-adv-x="462" 
d="M422 659q0 23 -17 39t-42 16q-40 0 -56 -37l-258 -594q-9 -21 -9 -28q0 -23 17.5 -39t42.5 -16q40 0 56 37l257 594q9 21 9 28zM193 21q-27 -61 -93 -61q-40 0 -70 27t-30 68q0 16 12 44l258 594q27 61 93 61q40 0 69.5 -27t29.5 -68q0 -16 -13 -44zM174 29l257 594
q11 24 11 36q0 32 -23.5 53.5t-55.5 21.5q-53 0 -75 -49l-257 -594q-11 -25 -11 -36q0 -32 24 -53.5t56 -21.5q53 0 74 49z" />
    <glyph glyph-name="zero" unicode="0" horiz-adv-x="803" 
d="M400 720q10 9 29.5 18t29.5 9q166 0 265 -141q79 -114 79 -244q0 -100 -51 -188q-57 -98 -162 -143q-12 -11 -185 -85q-7 -3 -127 52q-18 7 -49 25q-106 46 -167 133q-63 91 -63 206q0 128 78 242q98 143 266 143q24 0 57 -27zM412 703v0l-16 -6q-38 30 -53 30
q-157 0 -250 -134q-74 -108 -74 -231q0 -109 60 -195q58 -82 159 -126l3 -1q12 -10 160 -74q82 34 176 80l3 2q100 43 155 136q48 82 48 178q0 124 -76 232q-93 133 -248 133q-6 0 -25 -9t-22 -15zM763 362q0 118 -72 221q-87 124 -232 124q-11 0 -31 -16.5t-28 -18.5
q-8 2 -27 18.5t-30 16.5q-146 0 -233 -126q-71 -102 -71 -219q0 -103 55.5 -182t151.5 -121q-31 8 155 -71q88 38 133 58q31 15 38 19v2q94 40 145 127q46 78 46 168zM513 362q0 -49 -39 -66l-17 -7q-43 -18 -56 -53q-12 34 -56 53l-17 7q-17 8 -28 25.5t-11 40.5
q0 28 15 46.5t39 18.5q45 0 58 -55v0q14 55 58 55q24 0 39 -18t15 -47z" />
    <glyph glyph-name="one" unicode="1" horiz-adv-x="531" 
d="M491 67v142q0 31 -20.5 49.5t-48.5 18.5t-47 -16q-22 -18 -22 -52v-59h-36v491q0 31 -18 51t-49 20h-142q-31 0 -49.5 -20.5t-18.5 -48.5t16 -47q18 -22 52 -22h59v-424h-49q-37 0 -57.5 -21t-20.5 -54t20.5 -54t57.5 -21h302q31 0 51 18t20 49zM422 317q43 0 74 -28
q35 -31 35 -80v-142q0 -50 -32.5 -78.5t-78.5 -28.5h-302q-53 0 -85.5 32.5t-32.5 82.5t32.5 82.5t85.5 32.5h9v344h-19q-53 0 -83 36q-25 31 -25 73q0 43 29.5 76t78.5 33h142q50 0 80 -34q27 -31 27 -77v-343q29 19 65 19zM422 297q-42 0 -68 -28q-5 -6 -11 -4t-6 11v365
q0 39 -22 64q-25 27 -65 27h-142q-40 0 -64 -27t-24 -62t21 -60q24 -29 67 -29h29q10 0 10 -10v-364q0 -10 -10 -10h-19q-45 0 -71.5 -27t-26.5 -68t26.5 -68t71.5 -27h302q38 0 64.5 23.5t26.5 63.5v142q0 40 -27 64t-62 24z" />
    <glyph glyph-name="two" unicode="2" horiz-adv-x="554" 
d="M514 67v142q0 31 -20.5 49.5t-48.5 18.5q-29 0 -49 -17t-20 -51v-59h-103q48 56 97 112q59 71 88 124q39 70 39 130q0 93 -65 152q-62 56 -157 56q-94 0 -164.5 -67t-70.5 -160q0 -31 19.5 -52t53.5 -21q39 0 58 42l28 78q22 42 70 42q30 0 51 -23t21 -54q0 -42 -35 -93
q-46 -66 -122 -154q-63 -72 -127 -145q-23 -27 -23 -51q0 -66 78 -66h331q31 0 51 18t20 49zM461 316q39 -6 64 -33q29 -30 29 -74v-142q0 -50 -32.5 -78.5t-78.5 -28.5h-331q-48 0 -80 24q-38 28 -38 82q0 38 32 77q64 72 127 145q76 87 120 151q28 40 28 70q0 16 -10 26.5
t-22 10.5q-28 0 -44 -42q-26 -70 -30 -78q-27 -42 -82 -42q-52 0 -84 35q-29 32 -29 78q0 111 83 189t192 78t184 -67q78 -70 78 -181q0 -90 -76 -200zM443 -20q38 0 64.5 23.5t26.5 63.5v142q0 39 -26.5 63.5t-64.5 24.5q-8 0 -10 5q-3 5 2 11q82 114 82 203q0 102 -70 165
t-172 63q-101 0 -178 -72.5t-77 -174.5q0 -39 25 -66t68 -27q48 0 70 42q14 39 30.5 79.5t55.5 40.5q21 0 36.5 -16.5t15.5 -40.5q0 -36 -31 -82q-45 -64 -121 -151q-64 -73 -127 -146q-28 -33 -28 -64q0 -43 30 -66q27 -20 68 -20h331z" />
    <glyph glyph-name="three" unicode="3" horiz-adv-x="501" 
d="M40 69q0 28 18.5 48.5t52.5 20.5h200v122h-179q-34 0 -55 22q-18 19 -18 47t19 48.5t54 20.5h179v92h-193q-37 0 -57.5 21t-20.5 54t20.5 54t57.5 21h193q2 34 22.5 53t52.5 19q33 0 54 -20.5t21 -57.5v-556q0 -37 -21 -57.5t-54 -20.5h-275q-33 0 -53 22q-18 19 -18 47z
M386 -40q50 0 82.5 32.5t32.5 85.5v556q0 53 -32.5 85.5t-82.5 32.5q-81 0 -107 -72h-161q-53 0 -85.5 -32.5t-32.5 -82.5t32.5 -82.5t85.5 -32.5h153v-12h-139q-53 0 -83 -32.5t-30 -76.5q0 -43 30.5 -76t82.5 -33h139v-42h-160q-52 0 -81.5 -32.5t-29.5 -76.5
q0 -43 28 -74q32 -35 83 -35h275zM386 -20h-275q-42 0 -66.5 27t-24.5 62q0 36 24 62.5t67 26.5h170q10 0 10 10v62q0 10 -10 10h-149q-43 0 -68 27t-25 62q0 36 24.5 62.5t68.5 26.5h149q10 0 10 10v32q0 10 -10 10h-163q-45 0 -71.5 27t-26.5 68t26.5 68t71.5 27h168
q6 0 16 19q12 23 25 34q22 19 59 19q41 0 68 -26.5t27 -71.5v-556q0 -45 -27 -71.5t-68 -26.5z" />
    <glyph glyph-name="four" unicode="4" horiz-adv-x="622" 
d="M582 283q0 29 -20 47.5t-50 18.5h-17v247q0 64 -36 98q-31 30 -79 30q-64 0 -102 -58l-224 -346q-14 -22 -14 -44t17 -39q19 -20 53 -20h241v-145q0 -78 72 -78t72 78v145h17q30 0 50 18.5t20 47.5zM416 436q0 -29 -22 -44l-12 -9q-32 -21 -36 -50q-15 25 -53 33l-14 3
q-14 3 -25 15q-17 18 -17 45q0 39 34 45q35 7 54 -34v0q3 45 37 52q24 5 39 -13t15 -43zM622 283q0 -41 -25 -69t-62 -35v-107q0 -118 -112 -118t-112 118v105h-201q-51 0 -82 32q-28 28 -28 67q0 34 20 66l224 346q50 76 136 76q64 0 107 -41q48 -46 48 -127v-209
q37 -7 62 -35t25 -69zM602 283q0 38 -23 59q-12 11 -41 21q-23 8 -23 15v218q0 72 -42 113q-37 35 -93 35q-75 0 -119 -67l-224 -346q-17 -27 -17 -55q0 -31 22 -53q26 -26 68 -26h211q10 0 10 -10v-115q0 -98 92 -98t92 98v116q0 7 23 15q29 10 41 21q23 21 23 59z" />
    <glyph glyph-name="five" unicode="5" horiz-adv-x="557" 
d="M517 205q0 86 -63 138q-60 49 -154 49q-27 0 -75 -10v192h188q70 0 70 75q0 28 -19.5 45.5t-53.5 17.5h-250q-40 0 -57 -18q-21 -22 -21 -77l-1 -297q0 -5 -1.5 -16t-1.5 -18q0 -15 16.5 -31t42.5 -16q25 0 56.5 16.5t61.5 16.5q55 0 76 -10q30 -14 30 -55
q0 -45 -25.5 -63t-80.5 -18q-37 0 -87.5 32t-67.5 32q-28 0 -48 -20t-20 -48q0 -59 83 -100q70 -34 137 -34q136 0 197 46q68 50 68 171zM-8 122q0 36 21.5 64.5t54.5 38.5q-30 27 -30 61q0 7 1.5 18t1.5 16l1 297q0 135 118 135h250q49 0 81 -28.5t32 -74.5q0 -67 -46 -97
q-29 -18 -64 -18h-148v-104q19 2 35 2q107 0 179 -59q78 -63 78 -168q0 -141 -84 -203q-73 -54 -221 -54q-77 0 -161 45q-99 53 -99 129zM12 122q0 -63 89 -112q78 -42 151 -42q142 0 209 50q76 56 76 187q0 95 -70 153q-67 54 -167 54q-19 0 -43 -3q-12 -2 -12 9v126
q0 10 10 10h158q30 0 53 15q37 24 37 80q0 37 -26 60t-67 23h-250q-98 0 -98 -115l-1 -297q0 -5 -1.5 -16t-1.5 -18q0 -37 40 -57q7 -4 7 -10q0 -8 -11 -9q-34 -3 -58 -28.5t-24 -59.5zM255 166q43 0 56 10q10 7 10 31q0 25 -37 25q10 0 -29 0q-18 0 -43 -11
q-32 -15 -41 -18q59 -37 84 -37zM136 200q-7 4 -7 10q0 9 11 9q21 1 57.5 17t57.5 16q46 0 56 -3q30 -8 30 -42q0 -35 -18 -48t-68 -13q-28 0 -62 20q-29 17 -57 34z" />
    <glyph glyph-name="six" unicode="6" horiz-adv-x="603" 
d="M334 473q16 4 25 4q117 0 186 -89q58 -74 58 -166q0 -143 -155 -242q-12 -12 -143 -68q-7 -3 -62 22q-48 22 -72 36q-175 81 -175 266q0 65 57 192q60 134 136 227q89 109 163 109q38 0 74.5 -35t36.5 -78q0 -30 -40 -80q-31 -34 -63 -69q-16 -17 -26 -29zM318 448
q-16 -7 -21 -3q-7 6 -1 14q37 40 109 122q38 46 38 70q0 34 -30.5 63.5t-60.5 29.5q-67 0 -152 -107q-72 -90 -129 -219q-55 -123 -55 -182q0 -173 165 -249q21 -12 120 -55q34 14 67 28q57 25 67 35l2 2q146 93 146 225q0 86 -54 154q-63 81 -170 81q-18 0 -41 -9zM563 222
q0 79 -49 142q-58 73 -155 73q-13 0 -30 -7q-26 -11 -28 -11q-5 1 -20 13t-26 10l9 8q19 27 66 79q57 63 72 81q21 26 21 41q0 26 -24.5 49.5t-46.5 23.5q-19 0 -30 -7q-21 -14 -32 -24q-90 -84 -165 -207q-89 -147 -89 -250q0 -76 37 -135t117 -96q20 -12 111 -51
q119 51 125 60l7 4q130 83 130 204zM423 222q0 -49 -39 -66l-17 -7q-44 -19 -56 -54q-13 35 -57 54l-16 7q-17 7 -28 24.5t-11 41.5q0 28 15 46.5t39 18.5q45 0 58 -56v0q14 56 58 56q24 0 39 -18.5t15 -46.5z" />
    <glyph glyph-name="seven" unicode="7" horiz-adv-x="491" 
d="M451 637q0 33 -20.5 54t-57.5 21h-302q-31 0 -51 -18t-20 -49v-142q0 -31 20.5 -49.5t48.5 -18.5t48.5 17.5t20.5 50.5v59h76l-110 -491q-1 -6 -1 -13q0 -24 19.5 -41t48.5 -17h142q31 0 49.5 20.5t18.5 48.5t-17 48.5t-51 20.5h-39l90 424h9q37 0 57.5 21t20.5 54z
M140 419q-29 -24 -71 -24q-43 0 -74 28q-35 31 -35 80v142q0 50 34 80q31 27 77 27h302q53 0 85.5 -32.5t32.5 -82.5q0 -43 -25.5 -74.5t-68.5 -38.5l-74 -347q47 -4 74 -38q24 -31 24 -70q0 -43 -28 -74q-31 -35 -80 -35h-142q-106 0 -106 121q0 66 27 170zM301 170l78 365
q1 7 8 8q39 4 61.5 30t22.5 64q0 42 -26.5 68.5t-71.5 26.5h-302q-38 0 -64.5 -23t-26.5 -64v-142q0 -40 27 -64t62 -24q63 0 83 55q4 8 9 8q4 0 7.5 -5.5t2.5 -10.5q-26 -96 -53 -191q-33 -121 -33 -191q0 -100 86 -100h142q40 0 64 27t24 62t-22 60q-25 29 -68 29
q-12 0 -10 12z" />
    <glyph glyph-name="eight" unicode="8" horiz-adv-x="588" 
d="M548 508q0 80 -50 142q-57 73 -155 73q-12 0 -30 -7q-25 -10 -27 -11q-2 1 -28 11q-18 7 -31 7q-98 0 -155 -74q-49 -62 -49 -141q0 -66 35 -122t95 -82q-51 -45 -51 -117q0 -46 24.5 -85t66.5 -57l3 -2q0 -2 90 -43q83 36 87 42l5 3q91 58 91 142q0 72 -51 117
q130 83 130 204zM399 512q0 -23 -11 -40.5t-28 -25.5l-17 -7q-44 -19 -56 -53q-13 35 -56 53l-17 7q-39 17 -39 66q0 29 15 47t39 18q44 0 58 -55v0q13 55 58 55q24 0 39 -18.5t15 -46.5zM371 187q0 -34 -27 -46l-12 -5q-31 -13 -40 -37q-8 24 -39 37l-12 5q-11 5 -19 17.5
t-8 28.5q0 46 38 46q32 0 40 -39h1q9 39 40 39q38 0 38 -46zM62 187q0 56 30 106q-51 36 -80 93.5t-29 121.5q0 92 57 166q69 89 187 89q21 0 59 -15q37 15 57 15q118 0 187 -88q58 -74 58 -167q0 -121 -112 -211q33 -50 33 -110q0 -106 -114 -179q-12 -10 -59.5 -31
t-53.5 -19q-73 31 -102 49q-55 24 -86.5 72t-31.5 108zM82 187q0 -108 106 -162l2 -1q17 -10 96 -46q40 17 97 46l1 1q105 78 105 162q0 59 -34 106q-6 8 2 14q111 85 111 201q0 86 -54 154q-63 81 -171 81q-10 0 -34 -8t-27 -7q-39 15 -55 15q-108 0 -171 -82
q-53 -68 -53 -153q0 -61 29 -116.5t79 -87.5q9 -6 3 -14q-32 -47 -32 -103z" />
    <glyph glyph-name="nine" unicode="9" horiz-adv-x="579" 
d="M538 508q0 80 -49 142q-57 73 -155 73q-12 0 -30 -7q-26 -10 -27 -11q-2 1 -28 11q-18 7 -31 7q-98 0 -155 -74q-49 -62 -49 -141q0 -66 35 -122t95 -82l5 -2q-1 -3 128 -62l25 11q-46 -52 -130 -149q-21 -26 -21 -41q0 -26 24.5 -49.5t46.5 -23.5q19 0 30 7q21 14 32 24
q90 84 165 207q89 147 89 250v15v17zM398 508q0 -49 -39 -66l-17 -7q-43 -19 -56 -53q-12 34 -56 53l-17 7q-17 7 -28 25t-11 41q0 28 15 46.5t39 18.5q46 0 58 -55h1q14 55 57 55q24 0 39 -18.5t15 -46.5zM-26 508q0 92 57 166q69 89 187 89q20 0 59 -15q37 15 57 15
q118 0 187 -88q57 -74 57 -167v-19v-13q0 -65 -57 -192q-60 -134 -136 -227q-89 -109 -163 -109q-38 0 -74.5 35t-36.5 78q0 30 44 85q13 15 69 75q-71 33 -91 45q-74 32 -116.5 96.5t-42.5 145.5zM-6 508q0 -148 147 -224l1 -1q17 -9 103 -50q12 -6 3 -16q-35 -37 -69 -74
q-48 -56 -48 -82q0 -34 30.5 -63.5t60.5 -29.5q67 0 152 107q72 90 129 219q55 123 55 182v6.5v6.5v1v9v9q0 86 -53 154q-63 81 -171 81q-10 0 -34 -8t-27 -7q-39 15 -55 15q-108 0 -171 -82q-53 -68 -53 -153z" />
    <glyph glyph-name="colon" unicode=":" horiz-adv-x="357" 
d="M249 189q-28 0 -49 -15t-22 -15q-3 0 -6 3q-27 27 -67 27q-38 0 -62.5 -24.5t-24.5 -61.5q0 -25 15 -49t37 -33q11 -4 33 -10q40 -15 74 -86q34 71 77 85q83 29 83 93q0 37 -25 61.5t-63 24.5zM249 484q47 0 77.5 -30.5t30.5 -75.5q0 -78 -97 -112q-33 -11 -62 -69
q23 12 51 12q47 0 77.5 -30t30.5 -76q0 -78 -97 -111q-20 -7 -32 -22q-18 -20 -42 -73q-3 -7 -9 -7t-9 7q-36 82 -72 95q-21 7 -39.5 14.5t-35.5 29.5q-23 30 -23 67q0 45 30.5 75.5t76.5 30.5q28 0 52 -12q-30 58 -61 69q-21 8 -39.5 15.5t-35.5 29.5q-23 30 -23 67
q0 45 30.5 75.5t76.5 30.5q42 0 73 -26q26 26 71 26zM249 464q-28 0 -49 -15.5t-22 -15.5q-3 0 -6 3q-27 28 -67 28q-38 0 -62.5 -24.5t-24.5 -61.5q0 -25 15 -49t37 -34q11 -3 33 -10q40 -14 74 -85q34 70 77 85q83 29 83 93q0 37 -25 61.5t-63 24.5zM317 103
q0 -49 -49 -66l-21 -8q-54 -18 -69 -53q-16 34 -70 53l-21 8q-21 7 -35 25t-14 41q0 29 19 47.5t48 18.5q57 0 72 -56h1q17 56 71 56q30 0 49 -18.5t19 -47.5zM317 378q0 -50 -49 -67l-21 -7q-54 -19 -69 -54q-16 35 -70 54l-21 7q-21 8 -35 25.5t-14 41.5q0 28 19 47t48 19
q57 0 72 -56h1q17 56 71 56q30 0 49 -18.5t19 -47.5z" />
    <glyph glyph-name="semicolon" unicode=";" horiz-adv-x="357" 
d="M357 378q0 -78 -97 -112q-34 -12 -63 -72q36 -6 58 -33t22 -65v-170q0 -44 -28 -72t-72 -28t-72 28t-28 72v170q0 38 22 65t59 33q-30 61 -62 72q-21 8 -39.5 15.5t-35.5 29.5q-23 30 -23 67q0 45 30.5 75.5t76.5 30.5q42 0 73 -26q26 26 71 26q47 0 77.5 -30.5
t30.5 -75.5zM337 378q0 37 -25 61.5t-63 24.5q-28 0 -49 -15.5t-22 -15.5q-3 0 -6 3q-27 28 -67 28q-38 0 -62.5 -24.5t-24.5 -61.5q0 -25 15 -49t37 -34q11 -3 33 -10q40 -14 74 -85q34 70 77 85q83 29 83 93zM257 -74v170q0 36 -22 58t-58 22q-5 0 -10 -1
q-32 -3 -51 -24.5t-19 -54.5v-170q0 -35 22 -57.5t58 -22.5t58 22.5t22 57.5zM317 378q0 -50 -49 -67l-21 -7q-54 -19 -69 -54q-16 35 -70 54l-21 7q-21 8 -35 25.5t-14 41.5q0 28 19 47t48 19q57 0 72 -56h1q17 56 71 56q30 0 49 -18.5t19 -47.5zM237 -74q0 -60 -60 -60
q-34 0 -60 60v170q0 60 60 60t60 -60v-170z" />
    <glyph glyph-name="less" unicode="&#x3c;" horiz-adv-x="561" 
d="M451 490q33 0 51.5 -22t18.5 -53q0 -42 -51 -64l-216 -92v-2l216 -92q51 -22 51 -64q0 -31 -18.5 -53t-51.5 -22q-23 0 -42 9l-304 145q-33 15 -43 27q-17 18 -17 51t17 51q10 11 43 27l304 145q19 9 42 9zM486 314q75 30 75 101q0 45 -27 78q-31 37 -83 37
q-32 0 -59 -13l-304 -145q-39 -19 -55 -36q-28 -29 -28 -78t28 -78q16 -17 55 -36l304 -145q27 -13 59 -13q52 0 83 37q27 33 27 78q0 69 -75 101l-137 58q55 19 137 54zM478 333q-51 -22 -160 -63q-8 -2 -8 -9q0 -6 8 -9l160 -69q63 -27 63 -82q0 -38 -23 -65
q-25 -30 -67 -30q-28 0 -51 11l-303 145q-36 17 -50 31q-22 24 -22 65t22 65q14 14 50 31l303 145q23 11 51 11q42 0 66 -28.5t24 -66.5q0 -58 -63 -82z" />
    <glyph glyph-name="equal" unicode="=" horiz-adv-x="610" 
d="M100 245h410q36 0 58 22.5t22 57.5t-22 57.5t-58 22.5h-410q-36 0 -58 -22.5t-22 -57.5t22 -57.5t58 -22.5zM100 41q-44 0 -72 28t-28 72q0 68 58 92q-58 24 -58 92q0 44 28 72t72 28h410q44 0 72 -28t28 -72q0 -68 -58 -92q58 -24 58 -92q0 -44 -28 -72t-72 -28h-410z
M100 61h410q36 0 58 22.5t22 57.5t-22 57.5t-58 22.5h-410q-36 0 -58 -22.5t-22 -57.5t22 -57.5t58 -22.5zM570 325q0 60 -60 60h-410q-60 0 -60 -60t60 -60h410q60 0 60 60zM570 141q0 60 -60 60h-410q-60 0 -60 -60t60 -60h410q60 0 60 60z" />
    <glyph glyph-name="greater" unicode="&#x3e;" horiz-adv-x="555" 
d="M110 490q-33 0 -51.5 -22t-18.5 -53q0 -42 51 -64l216 -92v-2l-216 -92q-51 -22 -51 -64q0 -31 18.5 -53t51.5 -22q23 0 42 9l304 145q32 15 43 27q17 18 17 51t-17 51q-11 11 -43 27l-304 145q-19 9 -42 9zM75 314q-75 30 -75 101q0 45 27 78q31 37 83 37q32 0 59 -13
l304 -145q39 -19 55 -36q28 -29 28 -78t-28 -78q-16 -17 -55 -36l-304 -145q-27 -13 -59 -13q-52 0 -83 37q-27 33 -27 78q0 69 75 101l137 58q-55 19 -137 54zM83 333q51 -22 160 -63q8 -2 8 -9q0 -6 -8 -9l-160 -69q-63 -27 -63 -82q0 -38 23 -65q25 -30 67 -30
q28 0 51 11l303 145q36 17 50 31q22 24 22 65t-22 65q-14 14 -50 31l-303 145q-23 11 -51 11q-42 0 -66 -28.5t-24 -66.5q0 -58 63 -82z" />
    <glyph glyph-name="question" unicode="?" horiz-adv-x="541" 
d="M501 480q0 99 -70.5 165.5t-168.5 66.5q-74 0 -145 -52q-77 -57 -77 -131q0 -33 17 -52.5t44 -19.5q30 0 73.5 49.5t87.5 49.5q33 0 58 -22t25 -54q0 -63 -80 -85q-47 -13 -56 -17q-25 -12 -25 -36v-70q0 -31 19.5 -50t52.5 -19q31 0 51.5 19.5t20.5 49.5v6
q173 44 173 202zM368 126q0 28 -15 46.5t-39 18.5q-45 0 -58 -55v0q-14 55 -58 55q-24 0 -39 -18t-15 -47q0 -49 39 -66l17 -7q43 -18 56 -53q12 34 56 53l17 7q17 8 28 25.5t11 40.5zM408 126q0 -75 -80 -110q-28 -12 -62 -108q-3 -8 -10 -8q-6 0 -9 8q-22 61 -26 68
q-18 32 -54 48q-63 27 -63 102q0 68 51 95q-11 23 -11 51v70q0 48 42 69q38 13 78.5 26t40.5 43q0 14 -12.5 25t-30.5 11q-24 0 -47.5 -24.5t-46.5 -48.5q-30 -26 -67 -26q-46 0 -73.5 32.5t-27.5 79.5q0 95 94 163q82 60 168 60q114 0 196.5 -78t82.5 -194
q0 -174 -176 -233q-3 -13 -9 -26q52 -27 52 -95zM388 126q0 32 -15 52q-8 12 -27 24q-15 9 -15 15q0 2 2 5q6 20 21 42q167 53 167 216q0 108 -76.5 180t-182.5 72q-80 0 -157 -56q-85 -63 -85 -147q0 -40 22 -66t59 -26q38 0 81.5 49.5t79.5 49.5q25 0 44 -16.5t19 -39.5
q0 -41 -42 -58q-38 -12 -77 -24q-42 -17 -42 -56v-70q0 -28 14 -50q2 -3 2 -6q0 -5 -15 -14q-18 -12 -27 -24q-14 -20 -14 -52q0 -38 21 -60q9 -9 46 -33q31 -19 44 -41q9 -16 21 -51q31 80 64 94q68 29 68 91z" />
    <glyph glyph-name="at" unicode="@" horiz-adv-x="737" 
d="M360 142h10q23 0 48 2q-13 6 -23 15q-15 -11 -35 -17zM370 124q-38 0 -73 12q-8 2 -8 8q0 10 11 9h12q50 0 78 25q7 6 13 -1q20 -24 66 -24q10 0 10 -9q0 -7 -8 -9q-50 -11 -101 -11zM273 547q38 17 81 17q52 0 90 -25q8 9 20 15q-45 16 -94 16q-52 0 -97 -23zM370 588
q66 0 123 -27q7 -4 6 -9q0 -6 -8 -8q-26 -5 -38 -22q-5 -8 -12 -2q-36 26 -87 26q-86 0 -142 -69q-52 -63 -52 -150q0 -10 2 -21q1 -11 -9 -11q-7 0 -9 7q-6 27 -6 54q0 96 68 164t164 68zM537 290q56 24 56 108q0 40 -17 73l-1 -3q-15 -59 -38 -178zM701 398
q0 122 -102 207q-99 82 -229 82q-137 0 -234 -97t-97 -234t97 -234t234 -97q169 0 256 80q25 30 25 49q0 33 -34 33q-9 0 -29 -16q-25 -20 -31 -23q-80 -42 -187 -42q-104 0 -177 73t-73 177t73 177t177 73q102 0 174 -55q76 -60 76 -153q0 -64 -35 -105q-28 -31 -55 -31
q-21 0 -21 18q0 14 4 30l36 164q4 16 4 29q0 25 -42 25q-50 0 -50 -43v-11h-2q-35 54 -105 54q-78 0 -128 -62q-48 -58 -48 -139q0 -60 39 -108t95 -48q57 0 94 44h2q0 -44 62 -44q60 0 132 48q99 66 99 179zM389 297q-13 -6 -26 -3l-13 2q-34 6 -55 -10q6 26 -13 54l-7 11
q-7 11 -7 25q0 19 14 36.5t34 17.5q37 0 37 -40q0 -10 -4 -22v0q17 16 36 16q16 0 26.5 -10.5t10.5 -25.5q0 -35 -33 -51zM687 154q0 -38 -34 -73l-1 -1q-85 -91 -282 -91q-152 0 -259.5 107.5t-107.5 259.5t107.5 259.5t259.5 107.5q143 0 252 -90q115 -96 115 -235
q0 -112 -82 -184q32 -18 32 -60zM669 154q0 27 -21 41.5t-21 15.5q0 3 5 7q87 69 87 180q0 131 -109 221q-104 86 -240 86q-144 0 -246.5 -102.5t-102.5 -246.5t102.5 -246.5t246.5 -102.5q175 0 270 86q29 36 29 61z" />
    <glyph glyph-name="A" unicode="A" horiz-adv-x="597" 
d="M556 78v556q0 37 -20.5 57.5t-54.5 20.5h-195q-68 0 -108 -42q-43 -44 -43 -122v-200h-32q-27 0 -45 -18t-18 -45q0 -63 63 -63h32v-142q0 -36 20 -58t52 -22t52 22t20 58v142h127v-144q0 -37 21 -57.5t54 -20.5q34 0 54.5 20.5t20.5 57.5zM366 78v104h-47v-102
q0 -51 -31 -85.5t-81 -34.5t-81 34.5t-31 85.5v102q-42 4 -68.5 32t-26.5 71q0 41 26.5 70t66.5 33l2 160q1 94 53.5 149t137.5 55h195q50 0 82.5 -32.5t32.5 -85.5v-556q0 -53 -32.5 -85.5t-82.5 -32.5q-49 0 -82 32.5t-33 85.5zM386 78q0 -45 27 -71.5t68 -26.5
q42 0 68.5 26.5t26.5 71.5v556q0 45 -26.5 71.5t-68.5 26.5h-195q-92 0 -134 -63q-32 -49 -38 -142q-1 -75 -1 -149q0 -10 -10 -10q-35 0 -59 -24t-24 -59q0 -37 23.5 -60t61.5 -23q10 0 10 -10v-112q0 -43 25.5 -71.5t66.5 -28.5t66.5 28.5t25.5 71.5v112q0 10 10 10h67
q10 0 10 -10v-114zM463 412q0 -49 -39 -66l-17 -7q-43 -18 -56 -53q-12 34 -56 53l-17 7q-17 8 -28 25.5t-11 40.5q0 28 15 46.5t39 18.5q45 0 58 -55v0q14 55 58 55q24 0 39 -18t15 -47z" />
    <glyph glyph-name="B" unicode="B" horiz-adv-x="567" 
d="M345 484q0 -24 -17 -39l-11 -10q-28 -26 -29 -55q-18 23 -57 26l-15 1q-14 1 -27 11q-24 19 -24 51q0 19 12 31.5t30 12.5q27 0 45 -29h1q-2 24 9 42t34 18q21 0 35 -19t14 -41zM119 0q26 0 44 13q-39 25 -39 77q0 73 70 66v40q0 26 13.5 42.5t35.5 16.5q41 0 52 -50h1
q12 50 51 50q22 0 35.5 -16.5t13.5 -42.5q0 -44 -35 -59l-15 -7q-39 -16 -51 -47q-5 14 -22 27l-28 20q-32 23 -60 23q-25 0 -40.5 -18.5t-15.5 -44.5q0 -63 65 -90q29 -15 97 -45q107 46 113 54l6 4q117 74 117 183q0 54 -28 103q-31 55 -85 77q64 64 64 142q0 72 -44 128
q-52 66 -140 66q-3 0 -6 -1q-8 1 -17 1h-152q-35 0 -57 -20t-22 -55v-561q0 -35 22 -55.5t57 -20.5zM194 156zM390 -46q-96 -43 -102 -40q-43 17 -124 56q-22 -10 -44 -10q-51 0 -85.5 32t-34.5 84v561q0 53 34.5 84t84.5 31h152q8 0 17 -1q3 1 6 1q108 0 171 -81
q53 -68 53 -153q0 -69 -43 -131q45 -34 70 -90q22 -49 22 -101q0 -130 -141 -220q-8 -9 -36 -22zM381 -28q26 12 31 18l2 2q133 84 133 204q0 50 -22 97q-25 53 -70 84q-8 6 -2 14q45 59 45 127q0 79 -48 140q-58 74 -156 74h-2q-2 0 -3 -1h-2q-3 0 -8 1h-8h-152
q-43 0 -71 -25.5t-28 -69.5v-561q0 -44 28.5 -70t70.5 -26q11 0 31 7q16 5 20 3q24 -15 121 -56z" />
    <glyph glyph-name="C" unicode="C" horiz-adv-x="629" 
d="M590 75q0 33 -21 54t-57 21h-169q-67 0 -116 65t-49 139q0 71 50.5 137t114.5 66h169q36 0 57 21t21 54t-21 54t-57 21h-177q-121 0 -211 -115q-84 -108 -84 -238q0 -132 84 -240q89 -114 211 -114h177q36 0 57 21t21 54zM335 -40q-143 0 -243 130q-92 119 -92 264
q0 143 93 263q101 130 242 130h177q53 0 85.5 -32.5t32.5 -82.5t-32.5 -82.5t-85.5 -32.5h-169q-43 0 -84 -52t-41 -111q0 -62 39.5 -113t85.5 -51h169q53 0 85.5 -32.5t32.5 -82.5t-32.5 -82.5t-85.5 -32.5h-177zM335 -20h177q45 0 71.5 27t26.5 68t-26.5 68t-71.5 27h-169
q-56 0 -100.5 58t-44.5 126q0 65 46 124t99 59h169q45 0 71.5 27t26.5 68t-26.5 68t-71.5 27h-177q-131 0 -226 -122q-89 -115 -89 -251q0 -138 88 -252q94 -122 227 -122z" />
    <glyph glyph-name="D" unicode="D" horiz-adv-x="671" 
d="M631 316q0 165 -91 250.5t-261 85.5h-91q-10 60 -73 60q-33 0 -54 -20.5t-21 -57.5v-556q0 -37 21 -57.5t54 -20.5h174q158 0 248 79q94 83 94 237zM115 -40q-50 0 -82.5 32.5t-32.5 85.5v556q0 53 32.5 85.5t82.5 32.5q72 0 102 -60h62q185 0 288.5 -96.5t103.5 -279.5
q0 -172 -107 -267q-102 -89 -275 -89h-174zM115 -20h174q166 0 261 84q101 89 101 252q0 174 -97.5 265t-274.5 91h-68q-6 0 -16 16q-13 19 -26 28q-21 16 -54 16q-41 0 -68 -26.5t-27 -71.5v-556q0 -45 27 -71.5t68 -26.5zM454 362q0 -49 -39 -66l-17 -7q-43 -18 -56 -53
q-12 34 -56 53l-17 7q-17 8 -28 25.5t-11 40.5q0 28 15 46.5t39 18.5q45 0 58 -55v0q14 55 58 55q24 0 39 -18t15 -47z" />
    <glyph glyph-name="E" unicode="E" horiz-adv-x="501" 
d="M461 69q0 28 -18.5 48.5t-52.5 20.5h-200v92h179q34 0 54 22q19 19 19 47t-19 48.5t-54 20.5h-179v122h193q37 0 57.5 21t20.5 54t-20.5 54t-57.5 21h-193q-2 34 -22.5 53t-52.5 19q-33 0 -54 -20.5t-21 -57.5v-556q0 -37 21 -57.5t54 -20.5h275q33 0 53 22q18 19 18 47z
M115 -40q-50 0 -82.5 32.5t-32.5 85.5v556q0 53 32.5 85.5t82.5 32.5q81 0 107 -72h161q53 0 85.5 -32.5t32.5 -82.5t-32.5 -82.5t-85.5 -32.5h-153v-42h139q52 0 84 -34q29 -31 29 -75q0 -43 -29 -75q-33 -34 -84 -34h-139v-12h160q52 0 83 -34q28 -31 28 -75
q0 -43 -28 -74q-32 -35 -83 -35h-275zM115 -20h275q42 0 68 28q23 26 23 61q0 36 -24 62.5t-67 26.5h-170q-10 0 -10 10v32q0 10 10 10h149q43 0 68 27t25 62q0 36 -24.5 62.5t-68.5 26.5h-149q-10 0 -10 10v62q0 10 10 10h163q45 0 71.5 27t26.5 68t-26.5 68t-71.5 27h-168
q-6 0 -16 19q-12 23 -25 34q-22 19 -59 19q-42 0 -68.5 -26.5t-26.5 -71.5v-556q0 -45 26.5 -71.5t68.5 -26.5z" />
    <glyph glyph-name="F" unicode="F" horiz-adv-x="501" 
d="M461 565q0 33 -20.5 54t-57.5 21h-193q-2 34 -22.5 53t-52.5 19q-33 0 -54 -20.5t-21 -57.5v-556q0 -37 21 -57.5t54 -20.5t54 20.5t21 57.5v152h179q34 0 54 22q19 19 19 47t-19 48.5t-54 20.5h-179v122h193q37 0 57.5 21t20.5 54zM230 450v-42h139q52 0 84 -34
q29 -31 29 -75q0 -43 -29 -75q-33 -34 -84 -34h-139v-112q0 -53 -33 -85.5t-82 -32.5q-50 0 -82.5 32.5t-32.5 85.5v556q0 53 32.5 85.5t82.5 32.5q81 0 107 -72h161q53 0 85.5 -32.5t32.5 -82.5t-32.5 -82.5t-85.5 -32.5h-153zM220 470h163q45 0 71.5 27t26.5 68t-26.5 68
t-71.5 27h-168q-6 0 -16 19q-12 23 -25 34q-22 19 -59 19q-42 0 -68.5 -26.5t-26.5 -71.5v-556q0 -45 26.5 -71.5t68.5 -26.5q41 0 68 26.5t27 71.5v122q0 10 10 10h149q43 0 68 27t25 62q0 36 -24.5 62.5t-68.5 26.5h-149q-10 0 -10 10v62q0 10 10 10z" />
    <glyph glyph-name="G" unicode="G" horiz-adv-x="629" 
d="M243 262q-3 14 -3 29q0 45 31 77t81 32h160q54 0 86 -34.5t32 -87.5v-198v-2.5v-2.5q0 -50 -32.5 -82.5t-85.5 -32.5h-177q-143 0 -243 130q-92 120 -92 264q0 143 93 263q101 130 242 130h177q53 0 85.5 -32.5t32.5 -82.5t-32.5 -82.5t-85.5 -32.5h-169q-43 0 -84 -52
t-41 -111q0 -48 25 -92zM335 -20h177q45 0 71.5 27t26.5 68v2.5v2.5v198q0 46 -26.5 74t-71.5 28h-160q-43 0 -67.5 -27t-24.5 -63t24 -62t68 -26h58q10 0 10 -10v-12q0 -10 -10 -10h-67q-56 0 -100.5 58t-44.5 126q0 65 46 124t99 59h169q45 0 71.5 27t26.5 68t-26.5 68
t-71.5 27h-177q-131 0 -226 -122q-89 -115 -89 -251q0 -138 88 -252q94 -122 227 -122zM590 75v2.5v2.5v198q0 38 -21 60t-57 22h-160q-32 0 -51.5 -20t-20.5 -46q-2 -28 17 -50t55 -22h88v-72h-97q-67 0 -116 65t-49 139q0 71 50.5 137t114.5 66h169q36 0 57 21t21 54
t-21 54t-57 21h-177q-121 0 -211 -115q-84 -108 -84 -238q0 -132 84 -240q89 -114 211 -114h177q36 0 57 21t21 54z" />
    <glyph glyph-name="H" unicode="H" horiz-adv-x="629" 
d="M589 78v556q0 37 -21 57.5t-54 20.5t-54 -20.5t-21 -57.5v-276h-176v276q0 37 -21 57.5t-54 20.5q-34 0 -54.5 -20.5t-20.5 -57.5v-276h-1q-35 0 -54 -20.5t-19 -48.5t19 -47q20 -22 54 -22h1v-142q0 -37 20.5 -57.5t54.5 -20.5q33 0 54 20.5t21 57.5v142h176v-142
q0 -37 21 -57.5t54 -20.5t54 20.5t21 57.5zM73 634q0 54 32.5 86t82.5 32q49 0 82 -32.5t33 -85.5v-236h96v236q0 53 33 85.5t82 32.5q50 0 82.5 -32.5t32.5 -85.5v-556q0 -53 -32.5 -85.5t-82.5 -32.5q-49 0 -82 32.5t-33 85.5v102h-96v-102q0 -53 -33 -85.5t-82 -32.5
q-50 0 -82.5 32.5t-32.5 85.5v108q-35 12 -54.5 41t-19.5 62q0 77 71 102zM93 634l-3 -250q0 -7 -19 -16q-23 -12 -34 -24q-18 -21 -18 -55t19 -55q11 -12 36 -24q19 -10 19 -16v-116q0 -45 26.5 -71.5t68.5 -26.5q41 0 68 26.5t27 71.5v112q0 10 10 10h116q10 0 10 -10
v-112q0 -45 27 -71.5t68 -26.5q42 0 68.5 26.5t26.5 71.5v556q0 45 -26.5 71.5t-68.5 26.5q-41 0 -68 -26.5t-27 -71.5v-246q0 -10 -10 -10h-116q-10 0 -10 10v246q0 45 -27 71.5t-68 26.5q-42 0 -68.5 -26.5t-26.5 -71.5z" />
    <glyph glyph-name="I" unicode="I" horiz-adv-x="305" 
d="M265 647q0 28 -15.5 46.5t-39.5 18.5q-43 0 -57 -55h-1q-12 55 -58 55q-24 0 -39 -18.5t-15 -46.5q0 -23 11.5 -41t27.5 -25l17 -7q44 -19 57 -53q12 34 56 53l16 7q40 17 40 66zM225 80v414q0 31 -16 53q-16 -12 -31 -23q-20 -14 -25 -30q-6 16 -25 30q-16 11 -32 23
q-15 -22 -15 -53v-414q0 -36 20 -58t52 -22q31 0 51.5 22t20.5 58zM209 547zM41 80v414q0 27 12 54q-24 12 -39 43q-14 28 -14 56q0 42 25.5 73.5t68.5 31.5q33 0 59 -21q22 21 57 21q44 0 71 -33q24 -30 24 -72q0 -63 -54 -96q14 -28 14 -57v-414q0 -51 -31.5 -85.5
t-80.5 -34.5q-50 0 -81 34.5t-31 85.5zM61 80q0 -43 25.5 -71.5t66.5 -28.5q40 0 66 28.5t26 71.5v414q0 27 -16 56q-2 2 -2 5q0 5 15 15q19 12 28 24q15 21 15 53q0 35 -20.5 60t-54.5 25q-21 0 -38.5 -12.5t-19.5 -12.5q-3 0 -6 3q-21 22 -52 22q-33 0 -53.5 -25
t-20.5 -60q0 -25 14 -51t36 -34q11 -3 6 -14q-15 -28 -15 -54v-414z" />
    <glyph glyph-name="J" unicode="J" horiz-adv-x="297" 
d="M257 647q0 28 -15 46.5t-39 18.5q-44 0 -58 -55h-1q-12 55 -58 55q-24 0 -38.5 -18.5t-14.5 -46.5q0 -23 11 -41t27 -25l17 -7q44 -19 57 -53q12 34 56 53l16 7q40 17 40 66zM217 -14v508q0 31 -16 53q-16 -12 -31 -23q-19 -14 -25 -30q-6 16 -25 30q-16 11 -32 23
q-15 -22 -15 -53v-493q0 -35 -15 -46q-9 -7 -33 -7q-59 0 -59 -61q0 -65 100 -65q67 0 109 43t42 121zM201 547zM-74 -113q0 101 99 101h4l1 1q3 3 3 12v493q0 27 12 54q-23 12 -39 43q-13 28 -13 56q0 42 23 72q27 33 70 33q33 0 59 -21q22 21 58 21q43 0 70 -33
q24 -30 24 -72q0 -63 -54 -96q14 -28 14 -57v-508q0 -94 -53 -149t-138 -55q-52 0 -88 18q-52 27 -52 87zM-54 -113q0 -85 120 -85q76 0 123.5 49t47.5 135v508q0 27 -16 56q-2 2 -2 5q0 5 15 15q19 12 28 24q15 21 15 53q0 35 -20.5 60t-53.5 25q-22 0 -39.5 -12.5
t-19.5 -12.5q-3 0 -6 3q-21 22 -52 22q-33 0 -53 -25t-20 -60q0 -25 13.5 -51t35.5 -34q11 -3 6 -14q-15 -28 -15 -54v-493q0 -33 -28 -33q-79 0 -79 -81z" />
    <glyph glyph-name="K" unicode="K" horiz-adv-x="642" 
d="M603 63q0 32 -42 76l-193 201l145 143q49 48 49 80t-22 52t-52 20q-31 0 -58 -28l-157 -168l-83 87v118q0 34 -21 54t-54 20t-54 -21.5t-21 -52.5v-578q0 -33 21 -52.5t54 -19.5t54 21t21 51v255l259 -280q43 -47 76 -47t55.5 18t22.5 51zM420 14l-190 205v-153
q0 -47 -32.5 -79.5t-82.5 -32.5q-48 0 -81.5 31t-33.5 81v578q0 48 32.5 81t82.5 33q49 0 82 -31.5t33 -82.5v-102l43 -44l128 137q38 40 87 40q45 0 79 -30q35 -33 35 -82q0 -48 -60 -108l-118 -116l166 -172q53 -56 53 -104q0 -54 -39 -84q-33 -25 -79 -25q-50 0 -105 60z
M434 27q50 -53 91 -53q40 0 67 21q31 25 31 68q0 40 -48 90l-172 180q-7 7 0 14l124 122q55 54 55 94t-28 66t-66 26q-40 0 -72 -34l-136 -145q-2 -2 -6 -2q-14 0 -39 26.5t-25 37.5v106q0 42 -27 68t-68 26q-42 0 -68.5 -27t-26.5 -67v-578q0 -41 27 -66.5t68 -25.5t68 27
t27 65v178q0 9 6 11t11 -4z" />
    <glyph glyph-name="L" unicode="L" horiz-adv-x="389" 
d="M350 66q1 28 -16 49q-20 23 -56 23h-88v496q0 37 -21 57.5t-54 20.5t-54 -20.5t-21 -57.5v-552q0 -38 21 -60t57 -22h160q32 0 51.5 20t20.5 46zM118 -40q-54 0 -86 34.5t-32 87.5v552q0 53 33 85.5t82 32.5q50 0 82.5 -32.5t32.5 -85.5v-456h48q53 0 84 -34
q27 -30 27 -74t-28 -75q-31 -35 -83 -35h-160zM118 -20h160q43 0 69 28q23 26 23 62t-24 62t-68 26h-58q-10 0 -10 10v466q0 45 -26.5 71.5t-68.5 26.5q-41 0 -68 -26.5t-27 -71.5v-552q0 -46 26.5 -74t71.5 -28z" />
    <glyph glyph-name="M" unicode="M" horiz-adv-x="850" 
d="M811 80v395q0 92 -54 143t-143 51q-38 0 -80.5 -20t-71.5 -53q-58 73 -149 73q-50 0 -134 -60v50q-8 54 -66 54q-32 0 -52 -22.5t-20 -57.5v-553q0 -36 20 -58t52 -22q31 0 51.5 22t20.5 58v370q0 99 85 99q38 0 61 -27.5t23 -71.5v-370q0 -36 20 -58t52 -22
q31 0 51.5 22t20.5 58v370q0 44 22.5 71.5t62.5 27.5q38 0 61 -27.5t23 -71.5v-370q0 -36 20 -58t52 -22q31 0 51.5 22t20.5 58zM313 709q87 0 150 -57q71 57 151 57q105 0 169 -61q68 -63 68 -173v-395q0 -51 -31.5 -85.5t-80.5 -34.5q-50 0 -81 34.5t-31 85.5v370
q0 59 -44 59q-45 0 -45 -59v-370q0 -51 -31.5 -85.5t-80.5 -34.5q-50 0 -81 34.5t-31 85.5v370q0 59 -44 59q-45 0 -45 -59v-370q0 -51 -31.5 -85.5t-80.5 -34.5q-50 0 -81 34.5t-31 85.5v553q0 50 31 85t81 35q82 0 102 -76q60 32 98 32zM313 689q-25 0 -62.5 -18
t-43.5 -18q-7 0 -9 8q-11 72 -85 72q-41 0 -66.5 -28.5t-25.5 -71.5v-553q0 -43 25.5 -71.5t66.5 -28.5q40 0 66 28.5t26 71.5v370q0 79 65 79q64 0 64 -79v-370q0 -43 25.5 -71.5t66.5 -28.5q40 0 66 28.5t26 71.5v370q0 79 65 79q64 0 64 -79v-370q0 -43 25.5 -71.5
t66.5 -28.5q40 0 66 28.5t26 71.5v395q0 101 -60 157.5t-157 56.5q-78 0 -145 -58q-7 -6 -13 1q-59 57 -143 57z" />
    <glyph glyph-name="N" unicode="N" horiz-adv-x="554" 
d="M514 80v394q0 90 -55 142t-142 52q-96 0 -139 -59v50q-8 53 -66 53q-31 0 -51.5 -22t-20.5 -58v-552q0 -36 20.5 -58t51.5 -22q32 0 52 22t20 58v369q0 43 24.5 71t67.5 28q42 0 67 -24q27 -27 27 -75v-369q0 -36 20.5 -58t51.5 -22q32 0 52 22t20 58zM317 708
q103 0 169 -62q68 -65 68 -172v-394q0 -51 -31 -85.5t-81 -34.5q-49 0 -80.5 34.5t-31.5 85.5v369q0 59 -54 59q-52 0 -52 -59v-369q0 -51 -31 -85.5t-81 -34.5q-49 0 -80.5 34.5t-31.5 85.5v552q0 51 31.5 85.5t80.5 34.5q75 0 100 -64q43 20 105 20zM317 688
q-64 0 -106 -23q-12 -7 -15 6q-16 61 -84 61q-40 0 -66 -28.5t-26 -71.5v-552q0 -43 26 -71.5t66 -28.5q41 0 66.5 28.5t25.5 71.5v369q0 79 72 79q74 0 74 -79v-369q0 -43 26 -71.5t66 -28.5q41 0 66.5 28.5t25.5 71.5v394q0 98 -61 156t-156 58z" />
    <glyph glyph-name="O" unicode="O" horiz-adv-x="805" 
d="M400 720q10 9 29.5 18t29.5 9q166 0 265 -141q79 -114 79 -244q0 -100 -51 -188q-57 -98 -162 -143q-12 -11 -185 -85q-7 -3 -127 52q-18 7 -49 25q-106 46 -167 133q-63 91 -63 206q0 128 78 242q98 143 266 143q24 0 57 -27zM412 703v0l-16 -6q-38 30 -53 30
q-157 0 -250 -134q-74 -108 -74 -231q0 -109 60 -195q58 -82 159 -126l3 -1q12 -10 160 -74q82 34 176 80l3 2q100 43 155 136q48 82 48 178q0 124 -76 232q-93 133 -248 133q-6 0 -25 -9t-22 -15zM763 362q0 118 -72 221q-87 124 -232 124q-11 0 -31 -16.5t-28 -18.5
q-8 2 -27 18.5t-30 16.5q-146 0 -233 -126q-71 -102 -71 -219q0 -103 55.5 -182t151.5 -121q-31 8 155 -71q88 38 133 58q31 15 38 19v2q94 40 145 127q46 78 46 168zM513 362q0 -49 -39 -66l-17 -7q-43 -18 -56 -53q-12 34 -56 53l-17 7q-17 8 -28 25.5t-11 40.5
q0 28 15 46.5t39 18.5q45 0 58 -55v0q14 55 58 55q24 0 39 -18t15 -47z" />
    <glyph glyph-name="P" unicode="P" horiz-adv-x="618" 
d="M577 435q0 79 -49 141q-58 73 -155 73q-12 0 -30 -7q-26 -10 -27 -10q-2 0 -28 10q-18 7 -31 7q-39 0 -73 -12v15q-14 60 -72 60q-32 0 -52 -22t-20 -58v-552q0 -36 20 -58t52 -22t52 22t20 58v150l4 -1q-1 -4 128 -62q119 51 124 59l7 5q130 82 130 204zM437 435
q0 -50 -39 -66l-17 -8q-43 -18 -56 -53q-12 35 -56 53l-17 8q-17 7 -28 24.5t-11 40.5q0 29 15 47t39 18q46 0 58 -55h1q13 55 57 55q24 0 39 -18t15 -46zM257 689q20 0 59 -15q37 15 57 15q118 0 187 -88q57 -74 57 -166q0 -143 -154 -242q-16 -14 -80 -42.5t-71 -25.5
q-53 23 -88 42v-87q0 -51 -31 -85.5t-81 -34.5t-81 34.5t-31 85.5v552q0 51 31 85.5t81 34.5q73 0 102 -66q21 3 43 3zM257 669q-24 0 -47 -4q-7 -2 -17 15q-12 24 -24 34q-21 18 -57 18q-41 0 -66.5 -28.5t-25.5 -71.5v-552q0 -43 25.5 -71.5t66.5 -28.5t66.5 28.5
t25.5 71.5v104q0 17 15 8q37 -21 97 -47q122 53 134 63l1 1q146 93 146 226q0 86 -53 154q-64 80 -171 80q-10 0 -34 -8t-27 -7q-39 15 -55 15z" />
    <glyph glyph-name="Q" unicode="Q" horiz-adv-x="806" 
d="M401 720q10 9 29.5 18t29.5 9q167 0 265 -141q79 -114 79 -244q0 -129 -79 -229q45 -31 59 -47q27 -30 27 -71q0 -44 -34 -73.5t-75 -29.5q-49 0 -84 32q-13 12 -56 71q-155 -73 -164 -69q-43 18 -86 35q-67 29 -83 43q-105 49 -165 134q-64 90 -64 204q0 128 78 242
q98 143 266 143q24 0 57 -27zM413 703q-1 3 0 5l-16 -11q-38 30 -53 30q-157 0 -250 -134q-74 -108 -74 -231q0 -108 60 -193q58 -81 159 -128l3 -1q9 -9 160 -74q118 51 158 70q8 4 13 -3q50 -66 52 -68q33 -33 77 -33q34 0 61.5 24t27.5 59q0 37 -28 65q-8 7 -59 43
q-9 6 -1 14q81 96 81 225q0 124 -75 232q-93 133 -249 133q-6 0 -25 -9t-22 -15zM771 15q0 36 -35 61l-72 50q100 94 100 236q0 118 -72 221q-87 124 -232 124q-11 0 -31 -16.5t-28 -18.5q-8 2 -27 18.5t-30 16.5q-146 0 -233 -126q-71 -102 -71 -219q0 -102 57 -182
q54 -76 150 -121q-30 8 155 -71q156 67 171 77l62 -81q24 -32 67 -32q26 0 47.5 18.5t21.5 44.5zM514 362q0 -49 -39 -66l-17 -7q-43 -18 -56 -53q-12 34 -56 53l-17 7q-17 8 -28 25.5t-11 40.5q0 28 15 46.5t39 18.5q45 0 58 -55v0q14 55 58 55q24 0 39 -18t15 -47z" />
    <glyph glyph-name="R" unicode="R" horiz-adv-x="609" 
d="M577 435q0 79 -50 141q-57 73 -155 73q-12 0 -30 -7q-25 -10 -27 -10t-28 10q-18 7 -31 7q-39 0 -73 -12v15q-14 60 -72 60q-31 0 -51.5 -22t-20.5 -58v-552q0 -36 20.5 -58t51.5 -22q32 0 52 22t20 58v150l4 -1q0 -4 127 -62l122 -147q21 -26 58 -26q32 0 53.5 23.5
t21.5 53.5q0 24 -20 44l-109 111v0l6 5q131 82 131 204zM437 435q0 -50 -40 -66l-16 -8q-44 -18 -56 -53q-13 35 -57 53l-17 8q-16 7 -27.5 24.5t-11.5 40.5q0 29 15 47t39 18q46 0 58 -55h1q14 55 57 55q24 0 39.5 -18t15.5 -46zM256 689q21 0 59 -15q37 15 57 15
q118 0 187 -88q58 -74 58 -166q0 -121 -114 -212q106 -96 106 -152q0 -46 -32 -80q-33 -37 -83 -37q-57 0 -118 67q-43 57 -86 113q-39 17 -67 32v-86q0 -51 -31 -85.5t-81 -34.5t-81 34.5t-31 85.5v552q0 51 31 85.5t81 34.5q73 0 103 -66q20 3 42 3zM256 669q-24 0 -47 -4
q-7 -2 -16 15q-13 24 -24 34q-22 18 -58 18q-40 0 -66 -28.5t-26 -71.5v-552q0 -43 26 -71.5t66 -28.5q41 0 66.5 28.5t25.5 71.5v103q0 17 15 9q42 -20 85 -43l82 -108q58 -67 109 -67q41 0 68 29.5t27 67.5q0 49 -108 145q-9 8 0 15q116 87 116 204q0 86 -54 154
q-63 80 -171 80q-10 0 -34 -8t-27 -7q-39 15 -55 15z" />
    <glyph glyph-name="S" unicode="S" horiz-adv-x="575" 
d="M539 600q0 62 -93 91q-65 21 -150 21q-111 0 -180 -50q-76 -56 -76 -158q0 -112 86 -168q37 -25 161 -62q87 -26 87 -65q0 -30 -24 -47.5t-58 -17.5q-33 0 -72.5 35.5t-57.5 35.5q-28 0 -50 -43q-20 -38 -20 -72q0 -52 77 -80q56 -20 119 -20q103 0 175.5 62.5
t72.5 164.5q0 100 -87 149q-23 14 -161 57q-86 27 -86 73q0 35 26 49q23 13 76 13q34 0 85 -36.5t72 -36.5q29 0 54 38q24 35 24 67zM373 493q-47 35 -69 35q-44 0 -57 -7q-5 -4 -5 -15q0 -16 45 -31q67 -22 134 -43q73 -29 109 -69q46 -52 46 -136q0 -121 -88 -196
q-83 -71 -200 -71q-71 0 -142 31q-94 40 -94 109q0 45 31 97q36 58 79 58q34 0 73 -35.5t57 -35.5q42 0 42 25q0 9 -45 23q-147 43 -199 81q-90 65 -90 191q0 123 92 190q81 58 204 58q92 0 173 -31q110 -42 110 -121q0 -43 -30 -89q-37 -56 -88 -56q-35 0 -88 38zM385 510
q48 -35 76 -35q40 0 71 47q27 41 27 78q0 65 -97 102q-77 30 -166 30q-117 0 -192 -54q-84 -61 -84 -174q0 -118 86 -178q48 -33 188 -75q60 -18 60 -42q0 -19 -17 -32t-45 -13q-26 0 -64.5 35.5t-65.5 35.5q-31 0 -60.5 -47.5t-29.5 -87.5q0 -55 82 -91q67 -29 134 -29
q110 0 187 66q81 70 81 181q0 78 -45 127q-35 37 -106 63q-62 20 -122.5 39.5t-60.5 49.5q0 29 29 38q15 4 53 4q28 0 81 -38z" />
    <glyph glyph-name="T" unicode="T" horiz-adv-x="583" 
d="M543 566q0 28 -18.5 48.5t-49.5 20.5h-108q0 36 -21 56.5t-54 20.5t-54 -20.5t-21 -56.5h-110q-31 0 -49.5 -20.5t-18.5 -48.5q0 -29 17 -49t51 -20h109v-419q0 -37 21 -57.5t54 -20.5t54 20.5t21 57.5v419h109q34 0 51 20t17 49zM406 457v-379q0 -53 -32.5 -85.5
t-82.5 -32.5t-82.5 32.5t-32.5 85.5v379h-69q-53 0 -83 36q-25 30 -25 73t28 74q31 35 80 35h76q24 77 109 77t109 -77h74q49 0 80 -35q28 -31 28 -74t-25 -73q-30 -36 -83 -36h-69zM396 477h79q43 0 67 28q21 25 21 61q0 35 -24 62t-64 27h-82q-6 0 -16 20q-11 25 -24 37
q-23 20 -61 20t-61 -20q-13 -12 -25 -37q-9 -20 -16 -20h-83q-40 0 -64 -27t-24 -62q0 -36 21 -61q24 -28 67 -28h79q10 0 10 -10v-389q0 -45 27 -71.5t68 -26.5t68 26.5t27 71.5v389q0 10 10 10z" />
    <glyph glyph-name="U" unicode="U" horiz-adv-x="553" 
d="M513 36v596q0 36 -20 58t-52 22t-52 -22t-20 -58v-413q0 -43 -24.5 -71t-67.5 -28q-41 0 -67.5 25.5t-26.5 73.5v413q0 36 -20 58t-52 22t-52 -22t-20 -58v-438q0 -90 55 -142t142 -52q96 0 139 59v-50q8 -53 66 -53q32 0 52 22t20 58zM236 -40q-103 0 -170 63.5
t-67 170.5v438q0 51 31 85.5t81 34.5t81 -34.5t31 -85.5v-413q0 -59 54 -59q52 0 52 59v413q0 51 31 85.5t81 34.5t81 -34.5t31 -85.5v-596q0 -51 -31 -85.5t-81 -34.5q-75 0 -100 64q-43 -20 -105 -20zM236 -20q64 0 106 23q12 7 15 -6q16 -61 84 -61q40 0 66 28.5t26 71.5
v596q0 43 -26 71.5t-66 28.5q-41 0 -66.5 -28.5t-25.5 -71.5v-413q0 -79 -72 -79q-74 0 -74 79v413q0 43 -26 71.5t-66 28.5q-41 0 -66.5 -28.5t-25.5 -71.5v-438q0 -98 61 -156t156 -58z" />
    <glyph glyph-name="V" unicode="V" horiz-adv-x="680" 
d="M639 640q0 31 -23 51.5t-54 20.5q-44 0 -68 -49l-155 -404l-155 404q-23 49 -68 49q-30 0 -53.5 -20.5t-23.5 -51.5q0 -19 7 -37l219 -545q24 -58 74 -58q51 0 74 58l219 545q7 18 7 37zM451 43q-34 -83 -112 -83q-77 0 -111 83l-219 545q-10 25 -10 52q0 49 37 82
q35 30 80 30q77 0 105 -73l118 -308l119 308q28 73 104 73q46 0 81 -30q36 -33 36 -82q0 -27 -9 -52zM432 51l219 545q8 21 8 44q0 40 -29 66t-68 26q-62 0 -86 -61l-127 -332q-3 -8 -10 -8q-6 0 -9 8l-127 332q-24 61 -87 61q-38 0 -66 -25q-31 -27 -31 -67q0 -23 9 -44
l219 -545q28 -71 92 -71q65 0 93 71z" />
    <glyph glyph-name="W" unicode="W" horiz-adv-x="763" 
d="M723 632q-1 36 -21 58t-51 22q-32 0 -52 -22t-20 -58v-368h-126v368q-1 36 -21 58t-51 22q-32 0 -52 -22t-20 -58v-368h-126v368q0 36 -20 58t-52 22t-52 -22t-20 -58v-423q0 -35 20 -57.5t52 -22.5h4l20 -56q25 -73 87 -73q58 0 83 67l23 62h104l23 -62q24 -67 83 -67
q60 0 87 73l21 56h5q32 0 52 22.5t20 57.5v423zM-1 209v423q0 51 31 85.5t81 34.5t81 -34.5t31 -85.5v-328h46v328q0 51 31 85.5t81 34.5q113 0 112 -153v-295h46v328q0 51 31 85.5t81 34.5q113 0 112 -153v-390q0 -44 -24 -76.5t-65 -40.5q-23 -65 -45 -91q-33 -41 -91 -41
t-90 40q-20 24 -44 89h-48q-24 -65 -44 -89q-33 -40 -90 -40q-58 0 -92 41q-21 26 -44 91q-40 9 -63.5 41.5t-23.5 75.5zM19 209q0 -38 21 -65.5t55 -32.5q6 -1 8 -7q22 -62 38 -84q29 -40 81 -40q47 0 75 34q17 19 32 62q12 33 20 33h62q7 0 9 -6q24 -64 38 -84
q28 -39 80 -39q47 0 75 33q18 20 33 62q13 35 20 36q34 5 55.5 32t21.5 66v390q0 133 -92 133q-41 0 -66.5 -28.5t-25.5 -71.5v-338q0 -10 -10 -10h-66q-10 0 -10 10v305q0 133 -92 133q-41 0 -66.5 -28.5t-25.5 -71.5v-338q0 -10 -10 -10h-66q-10 0 -10 10v338
q0 43 -25.5 71.5t-66.5 28.5t-66.5 -28.5t-25.5 -71.5v-423z" />
    <glyph glyph-name="X" unicode="X" horiz-adv-x="578" 
d="M540 70q0 36 -20 49l-142 95h36q32 0 52 22t20 58v338q0 36 -20 58t-52 22t-52 -22t-20 -58v-304h-116v304q0 36 -20 58t-52 22t-52 -22t-20 -58v-338q0 -36 20 -58t52 -22h47l-141 -95q-20 -13 -20 -49q0 -31 19.5 -50.5t51.5 -19.5q33 0 60 32l119 146l119 -146
q26 -32 60 -32q31 0 51 19.5t20 50.5zM580 70q0 -48 -32 -79t-79 -31q-53 0 -91 47l-88 108l-88 -108q-39 -47 -91 -47q-48 0 -79.5 31t-31.5 79q0 44 29 74q14 15 65 47q-52 33 -52 103v338q0 51 31 85.5t81 34.5t81 -34.5t31 -85.5v-264h36v264q0 51 31 85.5t81 34.5
t81 -34.5t31 -85.5v-321q0 -84 -46 -117q54 -34 68 -48q32 -31 32 -76zM494 162q-12 7 -25 14q-19 12 -19 20q0 4 6 7q50 26 50 108v321q0 43 -25.5 71.5t-66.5 28.5t-66.5 -28.5t-25.5 -71.5v-274q0 -10 -10 -10h-56q-10 0 -10 10v274q0 43 -25.5 71.5t-66.5 28.5
t-66.5 -28.5t-25.5 -71.5v-338q0 -35 16 -59q11 -15 31 -29q16 -11 16 -15t-6 -8l-66 -44q-33 -28 -33 -69q0 -40 25.5 -65t65.5 -25q43 0 75 39l96 118q3 4 8 4q4 0 7 -4l96 -118q32 -39 76 -39q39 0 65 25t26 65q0 51 -66 92z" />
    <glyph glyph-name="Y" unicode="Y" horiz-adv-x="483" 
d="M443 164v468q0 36 -20.5 58t-51.5 22q-32 0 -52 -22t-20 -58v-218h-116v218q0 36 -20.5 58t-51.5 22q-32 0 -52 -22t-20 -58v-282q0 -36 20 -58t52 -22h188v-91q0 -35 -15 -46q-9 -7 -33 -7q-59 0 -59 -61q0 -65 100 -65q67 0 109 43t42 121zM152 65q0 101 99 101h5l1 1
q2 3 2 12v49q-13 0 -41 -1h-45q-79 0 -119 20q-55 29 -55 103v282q0 51 31 85.5t81 34.5q49 0 80.5 -34.5t31.5 -85.5v-178h36v178q0 51 31 85.5t81 34.5q49 0 80.5 -34.5t31.5 -85.5v-468q0 -94 -53 -149t-138 -55q-52 0 -88 18q-52 27 -52 87zM172 65q0 -85 120 -85
q76 0 123.5 49t47.5 135v468q0 43 -26 71.5t-66 28.5q-41 0 -66.5 -28.5t-25.5 -71.5v-188q0 -10 -10 -10h-56q-10 0 -10 10v188q0 43 -26 71.5t-66 28.5q-41 0 -66.5 -28.5t-25.5 -71.5v-282q0 -103 138 -103q18 0 48.5 1.5t40.5 1.5q33 0 33 -12v-59q0 -33 -28 -33
q-79 0 -79 -81z" />
    <glyph glyph-name="Z" unicode="Z" horiz-adv-x="628" 
d="M589 66q0 66 -72 66h-290l320 444q22 31 22 64q0 29 -20 49q-23 23 -64 23h-366q-29 0 -49.5 -20t-20.5 -48q0 -30 19.5 -47t50.5 -17h263l-322 -450q-20 -28 -20 -58q0 -32 22.5 -52t61.5 -20h393q28 0 50 19t22 47zM124 -40q-54 0 -89 30.5t-35 81.5q0 43 27 81
l277 387h-185q-45 0 -76 26q-34 29 -34 78q0 46 32.5 77t77.5 31h366q57 0 92 -34q32 -32 32 -78t-30 -87l-274 -381h212q47 0 79.5 -28t32.5 -78q0 -46 -35 -76t-77 -30h-393zM124 -20h393q35 0 63.5 24.5t28.5 61.5q0 41 -26 63.5t-66 22.5h-231q-20 0 -9 16l286 396
q26 36 26 76q0 37 -26 63q-29 29 -78 29h-366q-37 0 -63.5 -25.5t-26.5 -62.5q0 -39 26 -61.5t64 -22.5h205q19 0 8 -16l-288 -402q-24 -34 -24 -70q0 -41 29 -66.5t75 -25.5z" />
    <glyph glyph-name="bracketleft" unicode="[" horiz-adv-x="275" 
d="M132 1h-14q-61 0 -78 53v-136q0 -57 58 -57h100q38 0 38 42t-38 42h-62v56h-4zM194 -25q-16 15 -28 22v-22h28zM136 179v434h62q38 0 38 42t-38 42h-100q-58 0 -58 -57v-515q11 24 36 34l3 2q19 7 39 3l8 -2q4 9 10 17zM270 153q9 -21 9 -41q0 -41 -42 -81q-8 -6 -7 -52
q46 -18 46 -76q0 -40 -22.5 -61t-55.5 -21h-100q-43 0 -70.5 27t-27.5 70v722q0 44 27.5 70.5t70.5 26.5h100q33 0 55.5 -21t22.5 -61t-22.5 -61t-55.5 -21h-22v-363q28 4 55 -11.5t39 -45.5zM252 145q-18 43 -66 43h-6.5h-6.5q-17 0 -17 10v385q0 10 10 10h32q58 0 58 62
t-58 62h-100q-35 0 -56.5 -21t-21.5 -56v-722q0 -35 21.5 -56t56.5 -21h100q58 0 58 62q0 27 -12 41q-6 8 -19.5 15t-14.5 13q-1 62 17 77q32 27 32 63q0 17 -7 33zM239 112q0 -21 -14 -36l-10 -10q-26 -28 -24 -57q-20 22 -59 22h-14q-15 0 -28 9q-27 19 -27 52
q0 18 11.5 30.5t29.5 12.5q25 0 44 -26v0q-1 7 -1 14q0 48 42 48q22 0 36 -18.5t14 -40.5z" />
    <glyph glyph-name="backslash" unicode="\" horiz-adv-x="459" 
d="M421 55q0 7 -9 28l-257 592q-16 37 -56 37q-25 0 -42 -16t-17 -39q0 -10 8 -28l258 -592q16 -37 55 -37q25 0 42.5 16t17.5 39zM269 21l-258 592q-11 26 -11 44q0 41 29.5 68t69.5 27q66 0 93 -61l256 -592q13 -28 13 -44q0 -41 -30 -68t-70 -27q-65 0 -92 61zM287 29
q22 -49 74 -49q32 0 56 21.5t24 53.5q0 11 -11 36l-257 592q-21 49 -74 49q-33 0 -56 -21.5t-23 -53.5q0 -14 10 -36z" />
    <glyph glyph-name="bracketright" unicode="]" horiz-adv-x="276" 
d="M144 1h14q61 0 78 53v-136q0 -57 -58 -57h-100q-38 0 -38 42t38 42h62v56h4zM82 -25q16 15 28 22v-22h-28zM140 179v434h-62q-38 0 -38 42t38 42h100q58 0 58 -57v-515q-11 24 -36 34l-3 2q-19 7 -39 3l-8 -2q-4 9 -10 17zM6 153q-9 -21 -9 -41q0 -41 42 -81q8 -6 7 -52
q-46 -18 -46 -76q0 -40 22.5 -61t55.5 -21h100q43 0 70.5 27t27.5 70v722q0 44 -27.5 70.5t-70.5 26.5h-100q-33 0 -55.5 -21t-22.5 -61t22.5 -61t55.5 -21h22v-363q-28 4 -55 -11.5t-39 -45.5zM24 145q18 43 66 43h6.5h6.5q17 0 17 10v385q0 10 -10 10h-32q-58 0 -58 62
t58 62h100q35 0 56.5 -21t21.5 -56v-722q0 -35 -21.5 -56t-56.5 -21h-100q-58 0 -58 62q0 27 12 41q6 8 21 16q12 6 13 12q1 62 -17 77q-32 27 -32 63q0 17 7 33zM37 112q0 -21 14 -36l10 -10q26 -28 24 -57q20 22 59 22h14q15 0 28 9q27 19 27 52q0 18 -11.5 30.5
t-29.5 12.5q-25 0 -44 -26v0q1 7 1 14q0 48 -42 48q-22 0 -36 -18.5t-14 -40.5z" />
    <glyph glyph-name="asciicircum" unicode="^" horiz-adv-x="567" 
d="M527 425q0 22 -13 40l-161 223q-22 30 -53 30t-53 -30l-161 -223q-13 -18 -13 -40q0 -40 51 -40q35 0 51 22l125 161l125 -161q16 -22 51 -22q51 0 51 40zM393 383l-93 120l-93 -120q-30 -38 -83 -38q-34 0 -59 18q-32 21 -32 62q0 35 21 64l161 222q33 47 85 47t85 -47
l161 -222q21 -29 21 -64q0 -41 -32 -62q-25 -18 -59 -18q-53 0 -83 38zM409 395q23 -30 67 -30q28 0 49.5 15t21.5 45q0 29 -17 52l-161 223q-27 38 -69 38t-69 -38l-161 -223q-17 -23 -17 -52q0 -30 23 -46q20 -14 48 -14q44 0 67 30l101 130q3 5 8 5t8 -5z" />
    <glyph glyph-name="underscore" unicode="_" horiz-adv-x="639" 
d="M598 -65q0 25 -29 25h-500q-29 0 -29 -25t29 -25h500q29 0 29 25zM69 -130q-26 0 -46 15q-23 18 -23 50q0 31 23 49q20 16 46 16h500q26 0 47.5 -17t21.5 -48q0 -32 -21.5 -48.5t-47.5 -16.5h-500zM69 -110h500q19 0 34 11.5t15 33.5q0 21 -15 33t-34 12h-500
q-19 0 -34 -12t-15 -33q0 -22 15 -33.5t34 -11.5z" />
    <glyph glyph-name="grave" unicode="`" horiz-adv-x="326" 
d="M286 660q0 26 -28 40l-8 4l-118 48q-25 10 -38 10q-21 0 -37.5 -20.5t-16.5 -41.5q0 -43 41 -59l112 -44q25 -10 40 -10q22 0 37.5 22.5t15.5 50.5zM223 546q-14 0 -79 25q-60 22 -76 30q-68 36 -68 99q0 34 25 66q28 36 69 36q48 0 172 -62l10 -5q50 -24 50 -75
q0 -39 -22 -73q-27 -40 -71 -40zM223 566l10 1q33 0 54 32q19 28 19 61q0 38 -39 57l-8 5l-119 48q-29 12 -46 12q-31 0 -54 -29q-20 -25 -20 -53q0 -52 61 -83q52 -20 105 -39q29 -12 37 -12z" />
    <glyph glyph-name="a" unicode="a" horiz-adv-x="609" 
d="M569 74v384q0 36 -20.5 58t-51.5 22q-30 0 -50 -19.5t-22 -52.5q-30 10 -65 10q-13 0 -30 -7q-26 -11 -28 -11q-1 0 -27 11q-18 7 -31 7q-98 0 -156 -74q-48 -63 -48 -141q0 -67 35 -122.5t95 -81.5l5 -2q-1 -3 128 -62q120 52 124 59q13 -58 70 -58q31 0 51.5 22.5
t20.5 57.5zM424 261q0 -49 -39 -66l-17 -7q-43 -19 -56 -54q-12 35 -56 54l-17 7q-17 7 -28 24.5t-11 41.5q0 28 15 46.5t39 18.5q45 0 58 -56v0q14 56 58 56q24 0 39 -18.5t15 -46.5zM0 261q0 91 57 165q69 90 187 90q20 0 58 -16q38 16 58 16q18 0 36 -3q29 65 101 65
q50 0 81 -34.5t31 -85.5v-384q0 -51 -31 -85.5t-81 -34.5q-56 0 -88 44q-101 -51 -110 -47l-72 30q-56 25 -70 38q-73 32 -115 96.5t-42 145.5zM20 261q0 -75 39 -135t108 -89l3 -3q10 -10 133 -63q114 50 108 50q3 0 26.5 -23.5t59.5 -23.5q40 0 66 28.5t26 71.5v384
q0 44 -26 72t-66 28q-34 0 -55 -17q-11 -10 -25 -33q-9 -17 -16 -16q-20 4 -41 4q-10 0 -34.5 -8.5t-26.5 -7.5q-39 16 -55 16q-108 0 -171 -82q-53 -68 -53 -153z" />
    <glyph glyph-name="b" unicode="b" horiz-adv-x="610" 
d="M570 261q0 79 -49 142q-58 73 -155 73q-13 0 -30 -7q-26 -11 -28 -11t-27 11q-19 7 -31 7q-35 0 -66 -10v224q0 36 -20 58t-52 22q-31 0 -51.5 -22t-20.5 -58v-616q0 -35 20.5 -57.5t51.5 -22.5q58 0 70 59q17 -13 126 -60q119 51 125 60l7 4q130 83 130 204zM430 261
q0 -49 -39 -66l-17 -7q-44 -19 -56 -54q-13 35 -57 54l-16 7q-17 7 -28 24.5t-11 41.5q0 28 15 46.5t39 18.5q45 0 58 -56v0q14 56 58 56q24 0 39 -18.5t15 -46.5zM416 -6q-26 -10 -104 -43q-8 -3 -111 47q-33 -44 -89 -44q-49 0 -80.5 34.5t-31.5 85.5v616q0 51 31.5 85.5
t80.5 34.5q50 0 81 -34.5t31 -85.5v-175q13 1 26 1q20 0 58 -16q38 16 58 16q117 0 186 -89q58 -73 58 -166q0 -141 -154 -241q-8 -12 -40 -26zM409 13q26 11 31 19q2 3 4 4q146 93 146 225q0 86 -54 154q-63 81 -170 81q-10 0 -34.5 -8.5t-27.5 -7.5q-39 16 -54 16
q-18 0 -34 -3q-12 -1 -12 10v187q0 44 -25.5 72t-66.5 28q-40 0 -66 -28t-26 -72v-616q0 -43 26 -71.5t66 -28.5q36 0 60 23t26 23q-4 0 110 -49q40 17 101 42z" />
    <glyph glyph-name="c" unicode="c" horiz-adv-x="542" 
d="M503 72q0 32 -22 52t-58 20h-170q-43 0 -69 29q-24 26 -24 64t25 65.5t68 27.5h170q36 0 58 20t22 52t-22 52t-58 20h-173q-97 0 -153.5 -62t-56.5 -175t56.5 -175t153.5 -62h173q36 0 58 20t22 52zM250 -40q-115 0 -182.5 74.5t-67.5 202.5t67.5 202.5t182.5 74.5h173
q51 0 85.5 -31t34.5 -81t-34.5 -81t-85.5 -31h-170q-53 0 -53 -53t53 -53h170q51 0 85.5 -31t34.5 -81t-34.5 -81t-85.5 -31h-173zM250 -20h173q43 0 71.5 25.5t28.5 66.5t-28.5 66.5t-71.5 25.5h-170q-34 0 -53.5 21t-19.5 52t19.5 52t53.5 21h170q43 0 71.5 25.5
t28.5 66.5t-28.5 66.5t-71.5 25.5h-173q-106 0 -168 -68.5t-62 -188.5t62 -188.5t168 -68.5z" />
    <glyph glyph-name="d" unicode="d" horiz-adv-x="609" 
d="M569 74v616q0 36 -20 58t-52 22q-31 0 -51.5 -22t-20.5 -58v-224q-30 10 -65 10q-13 0 -31 -7q-26 -11 -27 -11q-2 0 -28 11q-17 7 -30 7q-97 0 -155 -73q-49 -63 -49 -142q0 -121 130 -204l7 -4q-2 -3 124 -60q109 47 126 60q13 -59 70 -59q32 0 52 22.5t20 57.5z
M404 261q0 -24 -11 -41.5t-28 -24.5l-17 -7q-44 -19 -56 -54q-13 35 -56 54l-17 7q-39 17 -39 66q0 28 15 46.5t39 18.5q44 0 58 -56v0q13 56 58 56q24 0 39 -18.5t15 -46.5zM0 261q0 93 58 166q69 89 186 89q20 0 58 -16q38 16 58 16q13 0 25 -1v175q0 51 31.5 85.5
t80.5 34.5q50 0 81 -34.5t31 -85.5v-616q0 -51 -31 -85.5t-81 -34.5q-56 0 -88 44q-103 -50 -111 -47q-42 17 -105 43q-32 14 -39 26q-154 100 -154 241zM20 261q0 -132 146 -225q2 -2 3 -4q6 -9 65 -34q34 -13 67 -27q115 49 111 49q2 0 25.5 -23t59.5 -23q41 0 66.5 28.5
t25.5 71.5v616q0 44 -25.5 72t-66.5 28q-40 0 -66 -28t-26 -72v-187q0 -11 -11 -10q-17 3 -34 3q-10 0 -34.5 -8.5t-27.5 -7.5q-38 16 -54 16q-107 0 -171 -81q-53 -68 -53 -154z" />
    <glyph glyph-name="e" unicode="e" horiz-adv-x="567" 
d="M464 178q79 -24 79 -106q0 -50 -34.5 -81t-85.5 -31h-173q-115 0 -182.5 74.5t-67.5 202.5t67.5 202.5t182.5 74.5h46q117 0 193 -62q78 -65 78 -170q0 -104 -103 -104v0zM211 198h253q83 0 83 84q0 96 -70.5 154t-180.5 58h-46q-106 0 -168 -68.5t-62 -188.5t62 -188.5
t168 -68.5h173q43 0 71.5 25.5t28.5 66.5t-28.5 66.5t-71.5 25.5h-170q-23 0 -38 9t-15 18q0 7 11 7zM527 282q0 178 -251 192h-26q-97 0 -153.5 -62t-56.5 -175t56.5 -175t153.5 -62h173q36 0 58 20t22 52t-22 52t-58 20h-170q-37 0 -61 21t-30 53h302q63 0 63 64zM339 266
q-15 -7 -29 -4l-14 2q-38 7 -61 -11q1 7 1 14q0 22 -16 46l-8 12q-8 12 -8 28q0 22 16 41t37 19q12 0 22 -6q19 -13 19 -38q0 -12 -4 -25v0q19 19 41 19q17 0 28.5 -12t11.5 -29q0 -39 -36 -56z" />
    <glyph glyph-name="f" unicode="f" horiz-adv-x="436" 
d="M397 285q0 63 -73 63h-45v249q0 35 15 46q9 7 33 7q59 0 59 61q0 65 -100 65q-68 0 -108 -42q-43 -44 -43 -122v-264h-32q-27 0 -45 -18t-18 -45q0 -63 63 -63h32v-142q0 -36 20 -58t52 -22t52 22t20 58v142h45q73 0 73 63zM319 182v-102q0 -51 -31 -85.5t-81 -34.5
t-81 34.5t-31 85.5v102q-42 4 -68.5 32t-26.5 71q0 41 26.5 70t66.5 33q0 18 -1 64t-1 71q0 131 32 199q46 94 163 94q52 0 88 -18q52 -27 52 -87q0 -101 -99 -101h-5l-1 -1q-2 -3 -2 -12v-209h5q47 0 77 -23q36 -27 36 -80t-36 -80q-31 -23 -77 -23h-5zM309 202h15
q93 0 93 83t-93 83h-15q-10 0 -10 10v219q0 33 28 33q79 0 79 81q0 85 -120 85q-76 0 -123 -49t-48 -135l-2 -234q0 -10 -10 -10q-35 0 -59 -24t-24 -59q0 -37 23.5 -60t61.5 -23q10 0 10 -10v-112q0 -43 25.5 -71.5t66.5 -28.5t66.5 28.5t25.5 71.5v112q0 10 10 10z" />
    <glyph glyph-name="g" unicode="g" horiz-adv-x="609" 
d="M497 578q49 0 80.5 -34.5t31.5 -85.5v-416q0 -144 -91 -224q-85 -76 -226 -76q-72 0 -158 36q-109 45 -109 112q0 36 29.5 69.5t68.5 33.5q29 0 86 -22.5t94 -22.5q51 0 71 33q-70 -32 -75 -30l-72 30q-56 25 -70 38q-73 32 -115 96.5t-42 145.5q0 91 57 165
q69 90 187 90q20 0 58 -16q38 16 58 16q18 0 35 -2q29 64 102 64zM497 558q-36 0 -57 -17q-11 -10 -24 -33q-9 -17 -17 -15q-19 3 -39 3q-10 0 -34.5 -8.5t-26.5 -7.5q-39 16 -55 16q-108 0 -171 -82q-53 -68 -53 -153q0 -75 39 -135t108 -89l3 -3q10 -10 133 -63
q53 23 85 38q7 4 12 0q4 -3 2 -11q-15 -70 -99 -70q-39 0 -97 22.5t-83 22.5q-30 0 -54 -27t-24 -56q0 -54 96 -94q82 -34 151 -34q134 0 213 71q84 74 84 209v416q0 44 -26 72t-66 28zM569 42v416q0 36 -20.5 58t-51.5 22q-58 0 -72 -60v-12q-31 10 -65 10q-13 0 -30 -7
q-26 -11 -28 -11q-1 0 -27 11q-18 7 -31 7q-98 0 -156 -74q-48 -63 -48 -141q0 -67 35 -122.5t95 -81.5l5 -2q-1 -3 128 -62q104 45 122 57v-28q0 -53 -34 -83.5t-88 -30.5q-46 0 -104 22.5t-76 22.5q-21 0 -39.5 -21t-18.5 -42q0 -52 91 -83q70 -25 136 -25q127 0 200 65
q77 69 77 195zM424 261q0 -49 -39 -66l-17 -7q-43 -19 -56 -54q-12 35 -56 54l-17 7q-17 7 -28 24.5t-11 41.5q0 28 15 46.5t39 18.5q45 0 58 -56v0q14 56 58 56q24 0 39 -18.5t15 -46.5z" />
    <glyph glyph-name="h" unicode="h" horiz-adv-x="554" 
d="M514 80v116q0 90 -55.5 142t-141.5 52q-91 0 -131 -50h-2v356q0 36 -20.5 58t-51.5 22q-32 0 -52 -22t-20 -58v-616q0 -36 20 -58t52 -22q31 0 51.5 22t20.5 58v91q0 43 24.5 71t67.5 28q41 0 66 -24q28 -27 28 -75v-91q0 -36 20 -58t52 -22q31 0 51.5 22t20.5 58z
M317 430q102 0 168 -62q69 -65 69 -172v-116q0 -51 -31.5 -85.5t-80.5 -34.5q-50 0 -81 34.5t-31 85.5v91q0 59 -54 59q-52 0 -52 -59v-91q0 -51 -31.5 -85.5t-80.5 -34.5q-50 0 -81 34.5t-31 85.5v616q0 51 31 85.5t81 34.5q49 0 80.5 -34.5t31.5 -85.5v-282q40 16 93 16z
M317 410q-60 0 -99 -20q-14 -8 -14 8v298q0 43 -26 71.5t-66 28.5q-41 0 -66.5 -28.5t-25.5 -71.5v-616q0 -43 25.5 -71.5t66.5 -28.5q40 0 66 28.5t26 71.5v91q0 79 72 79q74 0 74 -79v-91q0 -43 25.5 -71.5t66.5 -28.5q40 0 66 28.5t26 71.5v116q0 98 -61.5 156t-155.5 58
z" />
    <glyph glyph-name="i" unicode="i" horiz-adv-x="305" 
d="M265 477q0 28 -15.5 46.5t-39.5 18.5q-43 0 -57 -56h-1q-12 56 -58 56q-24 0 -39 -18.5t-15 -46.5q0 -24 11.5 -41.5t27.5 -24.5l17 -7q44 -19 57 -54q12 35 56 54l16 7q40 17 40 66zM225 80v244q0 31 -16 52q-16 -11 -31 -22q-20 -14 -25 -31q-6 17 -25 31l-32 22
q-15 -21 -15 -52v-244q0 -36 20 -58t52 -22q31 0 51.5 22t20.5 58zM209 376zM41 80v244q0 27 12 54q-24 12 -38.5 41t-14.5 58q0 41 24 71q27 34 70 34q33 0 59 -21q22 21 57 21q44 0 71 -33q24 -30 24 -72q0 -64 -54 -97q14 -28 14 -56v-244q0 -51 -31.5 -85.5t-80.5 -34.5
q-50 0 -81 34.5t-31 85.5zM61 80q0 -43 25.5 -71.5t66.5 -28.5q40 0 66 28.5t26 71.5v244q0 27 -16 55q-2 3 -2 5q0 6 15 15q19 13 28 25q15 21 15 53q0 35 -20.5 60t-54.5 25q-21 0 -38.5 -12.5t-19.5 -12.5q-3 0 -6 3q-21 22 -52 22q-33 0 -53.5 -25t-20.5 -60
q0 -26 13 -50q15 -27 37 -35q11 -4 6 -14q-15 -28 -15 -54v-244z" />
    <glyph glyph-name="j" unicode="j" horiz-adv-x="302" 
d="M263 477q0 28 -15 46.5t-39 18.5q-44 0 -58 -56v0q-13 56 -58 56q-24 0 -39 -18.5t-15 -46.5q0 -24 11 -41.5t28 -24.5l17 -7q44 -19 56 -54q13 35 56 54l17 7q39 17 39 66zM223 -106v430q0 31 -16 52q-15 -11 -31 -22q-19 -14 -25 -31q-6 17 -25 31q-16 11 -31 22
q-16 -21 -16 -52v-415q0 -35 -15 -46q-9 -7 -33 -7q-59 0 -59 -61q0 -65 100 -65q68 0 109.5 43t41.5 121zM207 376zM-68 -205q0 101 99 101h5l1 1q2 3 2 12v415q0 27 12 53q-23 13 -37.5 42t-14.5 58q0 41 24 71q26 34 70 34q33 0 58 -21q23 21 58 21q43 0 70 -33
q24 -30 24 -72q0 -64 -54 -97q14 -28 14 -56v-430q0 -94 -53 -149t-138 -55q-52 0 -88 18q-52 27 -52 87zM-48 -205q0 -85 120 -85q76 0 123.5 49t47.5 135v430q0 27 -16 55q-1 3 -1 5q0 6 14 15q19 13 28 25q15 21 15 53q0 35 -20 60t-54 25q-22 0 -39 -12.5t-19 -12.5
q-3 0 -7 3q-21 22 -51 22q-34 0 -54 -25t-20 -60q0 -26 13 -50q14 -27 36 -35q12 -4 6 -14q-15 -28 -15 -54v-415q0 -33 -28 -33q-79 0 -79 -81z" />
    <glyph glyph-name="k" unicode="k" horiz-adv-x="518" 
d="M499 476q0 29 -20 48.5t-48 19.5q-34 0 -69 -44l-176 -217l-2 413q-1 36 -21 58t-51 22q-32 0 -52 -22t-20 -58v-616q0 -36 20 -58t52 -22q31 0 51.5 22t20.5 58v98l158 -153q32 -31 65 -31q26 0 43.5 20t17.5 45q0 32 -28 57l-128 114l169 198q18 21 18 48zM367 234
l99 -88q42 -37 42 -87q0 -40 -27 -71q-30 -34 -74 -34t-101 47q-28 23 -82 81v-2q0 -51 -31.5 -85.5t-80.5 -34.5q-50 0 -81 34.5t-31 85.5v616q0 51 31 85.5t81 34.5q49 0 80 -34.5t32 -85.5l1 -301l106 130q47 59 100 59q45 0 76.5 -31.5t31.5 -76.5q0 -42 -28 -74z
M346 239l150 176q23 27 23 61q0 37 -26 62.5t-62 25.5q-43 0 -85 -51l-123 -152q-4 -5 -9 -5q-9 0 -9 11l-1 329q-1 43 -26.5 71.5t-65.5 28.5q-41 0 -66.5 -28.5t-25.5 -71.5v-616q0 -43 25.5 -71.5t66.5 -28.5q40 0 66 28.5t26 71.5v27q0 8 5 11q6 2 12 -4l84 -86
q60 -54 102 -54q35 0 58 26.5t23 58.5q0 41 -35 72l-106 94q-7 7 -1 14z" />
    <glyph glyph-name="l" unicode="l" horiz-adv-x="223" 
d="M184 80v616q0 36 -20.5 58t-51.5 22q-32 0 -52 -22t-20 -58v-616q0 -36 20 -58t52 -22q31 0 51.5 22t20.5 58zM0 80v616q0 51 31 85.5t81 34.5q49 0 80.5 -34.5t31.5 -85.5v-616q0 -51 -31.5 -85.5t-80.5 -34.5q-50 0 -81 34.5t-31 85.5zM20 80q0 -43 25.5 -71.5
t66.5 -28.5q40 0 66 28.5t26 71.5v616q0 43 -26 71.5t-66 28.5q-41 0 -66.5 -28.5t-25.5 -71.5v-616z" />
    <glyph glyph-name="m" unicode="m" horiz-adv-x="850" 
d="M810 80v226q0 93 -54 143.5t-143 50.5q-38 0 -80.5 -19.5t-71.5 -53.5q-58 73 -149 73q-50 0 -134 -60v50q-8 54 -66 54q-32 0 -52 -22t-20 -58v-384q0 -36 20 -58t52 -22q31 0 51.5 22t20.5 58v201q0 99 85 99q38 0 61 -27.5t23 -71.5v-201q0 -36 20 -58t52 -22
q31 0 51.5 22t20.5 58v201q0 44 22.5 71.5t62.5 27.5q38 0 61 -27.5t23 -71.5v-201q0 -36 20 -58t52 -22q31 0 51.5 22t20.5 58zM312 540q87 0 150 -56q71 56 151 56q105 0 171 -62t66 -172v-226q0 -51 -31.5 -85.5t-80.5 -34.5q-50 0 -81 34.5t-31 85.5v201q0 59 -44 59
q-45 0 -45 -59v-201q0 -51 -31.5 -85.5t-80.5 -34.5q-50 0 -81 34.5t-31 85.5v201q0 59 -44 59q-45 0 -45 -59v-201q0 -51 -31.5 -85.5t-80.5 -34.5q-50 0 -81 34.5t-31 85.5v384q0 51 31 85.5t81 34.5q82 0 102 -75q60 31 98 31zM312 520q-25 0 -62.5 -18t-43.5 -18
q-7 0 -8 8q-12 72 -86 72q-41 0 -66.5 -28.5t-25.5 -71.5v-384q0 -43 25.5 -71.5t66.5 -28.5q40 0 66 28.5t26 71.5v201q0 79 65 79q64 0 64 -79v-201q0 -43 25.5 -71.5t66.5 -28.5q40 0 66 28.5t26 71.5v201q0 79 65 79q64 0 64 -79v-201q0 -43 25.5 -71.5t66.5 -28.5
q40 0 66 28.5t26 71.5v226q0 101 -61 159q-59 55 -156 55q-78 0 -145 -57q-7 -6 -13 0q-59 57 -143 57z" />
    <glyph glyph-name="n" unicode="n" horiz-adv-x="554" 
d="M514 80v226q0 90 -55.5 142t-141.5 52q-97 0 -139 -59v50q-8 53 -66 53q-32 0 -52 -22t-20 -58v-384q0 -36 20 -58t52 -22q31 0 51.5 22t20.5 58v201q0 43 24.5 71t67.5 28q41 0 66 -24q28 -27 28 -75v-201q0 -36 20 -58t52 -22q31 0 51.5 22t20.5 58zM317 540
q102 0 168 -62q69 -65 69 -172v-226q0 -51 -31.5 -85.5t-80.5 -34.5q-50 0 -81 34.5t-31 85.5v201q0 59 -54 59q-52 0 -52 -59v-201q0 -51 -31.5 -85.5t-80.5 -34.5q-50 0 -81 34.5t-31 85.5v384q0 51 31 85.5t81 34.5q75 0 99 -64q44 20 106 20zM317 520q-65 0 -107 -23
q-11 -7 -14 6q-17 61 -84 61q-41 0 -66.5 -28.5t-25.5 -71.5v-384q0 -43 25.5 -71.5t66.5 -28.5q40 0 66 28.5t26 71.5v201q0 79 72 79q74 0 74 -79v-201q0 -43 25.5 -71.5t66.5 -28.5q40 0 66 28.5t26 71.5v226q0 98 -61.5 156t-155.5 58z" />
    <glyph glyph-name="o" unicode="o" horiz-adv-x="603" 
d="M564 261q0 79 -49 141q-58 73 -155 73q-13 0 -30 -7q-26 -10 -28 -10q-1 0 -27 10q-18 7 -31 7q-98 0 -156 -74q-48 -62 -48 -141q0 -66 35 -122t95 -81l5 -2q-1 -4 128 -62q118 51 124 59l7 5q130 82 130 204zM424 261q0 -50 -39 -66l-17 -8q-43 -18 -56 -53
q-12 34 -56 53l-17 8q-17 7 -28 24.5t-11 40.5q0 29 15 47t39 18q45 0 58 -55v0q14 55 58 55q24 0 39 -18t15 -46zM0 260q0 92 57 166q69 89 187 89q20 0 58 -15q38 15 58 15q117 0 186 -88q58 -74 58 -166q0 -141 -154 -241q-7 -12 -39 -26q-27 -11 -104 -43q-8 -3 -109 43
q-30 14 -41 25q-73 32 -115 96.5t-42 144.5zM20 260q0 -75 39 -134.5t108 -89.5l3 -2q10 -11 133 -63q33 13 67 27q59 25 65 34l3 3q146 93 146 226q0 86 -53 154q-64 80 -171 80q-10 0 -34.5 -8t-26.5 -7q-39 15 -55 15q-108 0 -171 -81q-53 -68 -53 -154z" />
    <glyph glyph-name="p" unicode="p" horiz-adv-x="618" 
d="M577 261q0 79 -49 141q-58 73 -155 73q-12 0 -30 -7q-26 -10 -27 -10q-2 0 -28 10q-18 7 -31 7q-39 0 -73 -12v15q-14 60 -72 60q-32 0 -52 -22t-20 -58v-596q0 -36 20 -58t52 -22t52 22t20 58v194l4 -1q-1 -4 128 -62q119 51 124 59l7 5q130 82 130 204zM437 261
q0 -50 -39 -66l-17 -8q-43 -18 -56 -53q-12 34 -56 53l-17 8q-17 7 -28 24.5t-11 40.5q0 29 15 47t39 18q46 0 58 -55h1q13 55 57 55q24 0 39 -18t15 -46zM257 515q20 0 59 -15q37 15 57 15q118 0 187 -88q57 -74 57 -166q0 -143 -154 -242q-16 -14 -80 -42.5t-71 -25.5
q-53 23 -88 41v-130q0 -51 -31 -85.5t-81 -34.5t-81 34.5t-31 85.5v596q0 51 31 85.5t81 34.5q73 0 102 -66q21 3 43 3zM257 495q-24 0 -47 -4q-7 -2 -17 15q-12 24 -24 34q-21 18 -57 18q-41 0 -66.5 -28.5t-25.5 -71.5v-596q0 -43 25.5 -71.5t66.5 -28.5t66.5 28.5
t25.5 71.5v148q0 17 15 8q37 -21 97 -47q122 53 134 63l1 1q146 93 146 226q0 86 -53 154q-64 80 -171 80q-10 0 -34 -8t-27 -7q-39 15 -55 15z" />
    <glyph glyph-name="q" unicode="q" horiz-adv-x="616" 
d="M577 -112v570q0 36 -20 58t-52 22q-30 0 -50 -20.5t-21 -54.5q-34 12 -74 12q-13 0 -31 -7q-26 -10 -27 -10q-2 0 -28 10q-17 7 -30 7q-97 0 -155 -73q-49 -62 -49 -141q0 -122 130 -204l7 -5q-2 -2 125 -59q119 51 127 62l5 1l-1 -18v-135q0 -35 -15 -46q-9 -7 -33 -7
q-59 0 -59 -61q0 -65 100 -65q68 0 109.5 43t41.5 121zM404 260q0 -23 -11 -40.5t-28 -24.5l-17 -8q-44 -19 -56 -53q-12 35 -56 53l-17 8q-39 16 -39 66q0 28 15 46t39 18q44 0 58 -55v0q13 55 58 55q24 0 39 -18t15 -47zM0 261q0 92 58 166q69 88 186 88q20 0 58 -15
q38 15 58 15q23 0 44 -3q29 66 101 66q50 0 81 -34.5t31 -85.5v-570q0 -94 -53 -149t-138 -55q-52 0 -88 18q-52 27 -52 87q0 101 99 101h5l1 1q2 3 2 12v89q-85 -46 -95 -41l-72 30q-61 27 -71 38q-155 99 -155 242zM20 261q0 -133 146 -226l2 -1q8 -9 134 -63q60 26 96 47
q15 9 15 -8v-107q0 -33 -28 -33q-79 0 -79 -81q0 -85 120 -85q77 0 124 49t47 135v570q0 43 -25.5 71.5t-66.5 28.5q-34 0 -55 -18q-11 -10 -25 -34q-9 -17 -17 -15q-23 4 -48 4q-10 0 -34.5 -8t-27.5 -7q-38 15 -54 15q-107 0 -170 -80q-54 -68 -54 -154z" />
    <glyph glyph-name="r" unicode="r" horiz-adv-x="457" 
d="M416 311q0 68 -43 109.5t-121 41.5h-67l1 22h-2q0 60 -70 60q-30 0 -52 -19t-22 -53v-392q0 -36 20 -58t52 -22q31 0 51 22t21 58l1 238h52q36 0 47 -15q6 -9 6 -33q0 -59 61 -59q65 0 65 100zM250 278h-13h-13v-198q-1 -51 -32 -85.5t-80 -34.5q-50 0 -81 34.5t-31 85.5
v392q0 53 37 84q33 28 77 28q97 0 108 -82h30q94 0 149 -53t55 -138q0 -52 -18 -88q-27 -52 -87 -52q-97 0 -101 107zM252 482h-39q-9 0 -10 10q-4 72 -89 72q-37 0 -64 -23q-30 -26 -30 -69v-392q0 -43 25.5 -71.5t66.5 -28.5q40 0 65.5 28.5t26.5 71.5l1 208q0 10 10 10
h22q21 0 27 -4.5t6 -23.5q0 -79 81 -79q85 0 85 120q0 77 -49 124t-135 47z" />
    <glyph glyph-name="s" unicode="s" horiz-adv-x="487" 
d="M1 111q0 23 15 49q16 31 44 45q-41 37 -41 103q0 93 69 152q66 56 166 56q75 0 142 -37q78 -42 78 -107q0 -55 -43 -87q56 -34 56 -116q0 -92 -69.5 -150.5t-175.5 -58.5q-78 0 -156 43q-85 47 -85 108zM21 111q0 -48 75 -91q72 -40 146 -40q99 0 162 53t63 136
q0 79 -61 107q-8 3 -8 7q0 1 28 27t28 62q0 53 -67 90q-62 34 -133 34q-93 0 -154 -52t-61 -136q0 -66 47 -98q5 -4 5 -8q0 -5 -18 -16q-23 -14 -33 -26q-19 -21 -19 -49zM246 330q21 0 52 -14q8 -3 8 -10q0 -10 -13 -9q-18 1 -54 5q-12 -4 -14 -4q-8 0 -8 12q0 20 29 20z
M268 154q-10 0 -26 1q-19 3 -25 3q19 -12 35 -12q12 0 16 8zM178 162q-5 4 -5 10q0 9 12 8q28 -1 82 -6q1 0 3 1l2 2q6 3 12 0q5 -3 5 -10q0 -41 -37 -41q-28 0 -74 36zM447 169q0 71 -64 94q-27 10 -121 17q-65 5 -65 30q0 40 49 40q26 0 72 -21t57 -21q25 0 42 19t17 45
q0 48 -63 78q-53 26 -117 26q-85 0 -140 -47t-55 -121q0 -72 65 -95q28 -11 121 -17q64 -4 64 -29q0 -61 -57 -61q-35 0 -78.5 34.5t-70.5 34.5t-46 -24q-16 -20 -16 -40q0 -46 71 -80q63 -31 130 -31q92 0 148.5 48t56.5 121z" />
    <glyph glyph-name="t" unicode="t" horiz-adv-x="423" 
d="M389 399q0 63 -69 63h-41v221q0 36 -20.5 58t-51.5 22q-32 0 -52 -22t-20 -58v-221h-32q-27 0 -45 -18t-18 -45q0 -63 63 -63h32v-172q0 -78 41.5 -121t109.5 -43q100 0 100 65q0 61 -59 61q-24 0 -33 7q-15 11 -15 46v157h41q69 0 69 63zM319 296v-117q0 -9 1.5 -11
t6.5 -2q99 0 99 -101q0 -60 -53 -87q-35 -18 -87 -18q-85 0 -138 55t-53 149v132q-43 4 -69 32t-26 71q0 41 26.5 70t66.5 33q0 11 -2 48.5t-2 60.5q0 192 118 192q49 0 80.5 -34.5t31.5 -85.5v-181h1q43 0 73 -23q36 -27 36 -80q0 -52 -36 -80q-30 -23 -73 -23h-1zM309 316
h11q36 0 62.5 20.5t26.5 62.5t-29 64q-23 19 -60 19h-11q-10 0 -10 10v191q0 43 -26 71.5t-66 28.5q-41 0 -66.5 -28.5t-25.5 -71.5l-2 -191q-1 -10 -10 -10q-36 0 -59.5 -24t-23.5 -59q0 -37 23.5 -60t61.5 -23q10 0 10 -10v-142q0 -86 47 -135t124 -49q120 0 120 85
q0 81 -79 81q-28 0 -28 33v127q0 10 10 10z" />
    <glyph glyph-name="u" unicode="u" horiz-adv-x="554" 
d="M40 396v-158q0 -90 55 -142t142 -52q96 0 139 59v-50q8 -53 66 -53q31 0 51.5 22t20.5 58v316q0 35 -20.5 57.5t-51.5 22.5q-32 0 -52 -22.5t-20 -57.5v-133q0 -43 -24.5 -71t-67.5 -28q-42 0 -68 25.5t-26 73.5v133q0 35 -20.5 57.5t-51.5 22.5q-32 0 -52 -22.5
t-20 -57.5zM237 4q-103 0 -170 63.5t-67 170.5v158q0 51 31 85.5t81 34.5q49 0 80.5 -34.5t31.5 -85.5v-133q0 -59 54 -59q52 0 52 59v133q0 51 31 85.5t81 34.5q49 0 80.5 -34.5t31.5 -85.5v-316q0 -51 -31.5 -85.5t-80.5 -34.5q-75 0 -100 64q-43 -20 -105 -20zM237 24
q64 0 106 23q12 7 15 -6q16 -61 84 -61q40 0 66 28.5t26 71.5v316q0 43 -26 71.5t-66 28.5q-41 0 -66.5 -28.5t-25.5 -71.5v-133q0 -79 -72 -79q-74 0 -74 79v133q0 43 -26 71.5t-66 28.5q-41 0 -66.5 -28.5t-25.5 -71.5v-158q0 -98 61 -156t156 -58z" />
    <glyph glyph-name="v" unicode="v" horiz-adv-x="545" 
d="M505 406q0 33 -22 51.5t-53 18.5q-42 0 -64 -51l-92 -216h-2l-92 216q-22 51 -64 51q-31 0 -53 -18.5t-22 -51.5q0 -23 9 -42l145 -304q16 -33 27 -43q18 -17 51 -17t51 17q11 10 27 43l145 304q9 19 9 42zM329 440q30 76 101 76q45 0 78 -27q37 -31 37 -83
q0 -32 -13 -59l-145 -304q-19 -39 -36 -56q-29 -27 -78 -27t-78 27q-17 17 -36 56l-145 304q-13 27 -13 59q0 52 37 83q33 27 78 27q69 0 101 -76l58 -136q20 54 54 136zM348 433q-22 -51 -63 -160q-2 -8 -9 -8q-6 0 -9 7l-69 161q-26 63 -82 63q-38 0 -65 -23
q-30 -25 -30 -67q0 -28 11 -51l145 -304q17 -36 31 -49q24 -22 65 -22t65 22q14 13 31 49l145 304q11 23 11 51q0 42 -28.5 66t-66.5 24q-58 0 -82 -63z" />
    <glyph glyph-name="w" unicode="w" horiz-adv-x="763" 
d="M723 396q-1 36 -21 58t-51 22q-32 0 -52 -22t-20 -58v-132h-126v132q-1 36 -21 58t-51 22q-32 0 -52 -22t-20 -58v-132h-126v132q0 36 -20 58t-52 22t-52 -22t-20 -58v-187q0 -35 20 -57.5t52 -22.5h4l20 -56q25 -73 87 -73q58 0 83 67l23 62h104l23 -62q24 -67 83 -67
q60 0 87 73l21 56h5q32 0 52 22.5t20 57.5v187zM-1 209v187q0 51 31 85.5t81 34.5t81 -34.5t31 -85.5v-92h46v92q0 51 31 85.5t81 34.5t80.5 -34.5t31.5 -85.5v-34v-58h46v92q0 51 31 85.5t81 34.5q113 0 112 -154v-153q0 -44 -24 -76.5t-65 -40.5q-23 -65 -45 -91
q-33 -41 -91 -41t-90 40q-20 24 -44 89h-48q-24 -65 -44 -89q-33 -40 -90 -40q-58 0 -92 41q-21 26 -44 91q-40 9 -63.5 41.5t-23.5 75.5zM19 209q0 -38 21 -65.5t55 -32.5q6 -1 8 -7q22 -62 38 -84q29 -40 81 -40q47 0 75 34q17 19 32 62q12 33 20 33h62q7 0 9 -6
q24 -64 38 -84q28 -39 80 -39q47 0 75 33q18 20 33 62q13 35 20 36q34 5 55.5 32t21.5 66v153q0 134 -92 134q-41 0 -66.5 -28.5t-25.5 -71.5v-102q0 -10 -10 -10h-66q-10 0 -10 10v102q-1 43 -26.5 71.5t-65.5 28.5q-41 0 -66.5 -28.5t-25.5 -71.5v-102q0 -10 -10 -10h-66
q-10 0 -10 10v102q0 43 -25.5 71.5t-66.5 28.5t-66.5 -28.5t-25.5 -71.5v-187z" />
    <glyph glyph-name="x" unicode="x" horiz-adv-x="579" 
d="M540 70q0 36 -20 49l-142 95h36q32 0 52 22t20 58v102q-1 36 -20.5 58t-51.5 22t-52 -22t-20 -58v-68h-116v68q0 36 -20 58t-52 22t-52 -22t-20 -58v-102q0 -36 20 -58t52 -22h47l-141 -95q-20 -13 -20 -49q0 -31 19.5 -50.5t51.5 -19.5q33 0 60 32l119 146l119 -146
q26 -32 60 -32q31 0 51 19.5t20 50.5zM580 70q0 -48 -32 -79t-79 -31q-53 0 -91 47l-88 108l-88 -108q-39 -47 -91 -47q-48 0 -79.5 31t-31.5 79q0 44 29 74q14 15 65 47q-52 33 -52 103v102q0 51 31 85.5t81 34.5t81 -34.5t31 -85.5v-28h36v28q0 51 31 85.5t81 34.5
t80.5 -34.5t31.5 -85.5q0 -7 1 -33q1 -22 1 -36q0 -98 -48 -133q54 -34 68 -48q32 -31 32 -76zM494 162q-13 7 -25 14q-19 12 -19 20q0 4 6 7q52 27 52 124q0 14 -1 37.5t-1 31.5q-1 43 -26 71.5t-66 28.5t-66.5 -28.5t-25.5 -71.5v-38q0 -10 -10 -10h-56q-10 0 -10 10v38
q0 43 -25.5 71.5t-66.5 28.5t-66.5 -28.5t-25.5 -71.5v-102q0 -35 16 -59q11 -15 31 -29q16 -11 16 -15t-6 -8l-66 -44q-33 -28 -33 -69q0 -40 25.5 -65t65.5 -25q43 0 75 39l96 118q3 4 8 4q4 0 7 -4l96 -118q32 -39 76 -39q39 0 65 25t26 65q0 51 -66 92z" />
    <glyph glyph-name="y" unicode="y" horiz-adv-x="484" 
d="M444 -106v502q0 36 -20 58t-52 22t-52 -22t-20 -58v-252h-116v252q0 36 -20 58t-52 22t-52 -22t-20 -58v-316q0 -36 20 -58t52 -22h188v-91q0 -35 -15 -46q-9 -7 -33 -7q-59 0 -59 -61q0 -65 100 -65q68 0 109.5 43t41.5 121zM153 -205q0 101 99 101h5l1 1q2 3 2 12v49
q-13 0 -41 -1h-45q-79 0 -119 20q-55 29 -55 103v316q0 51 31 85.5t81 34.5t81 -34.5t31 -85.5v-212h36v212q0 51 31 85.5t81 34.5t81 -34.5t31 -85.5v-502q0 -94 -53 -149t-138 -55q-52 0 -88 18q-52 27 -52 87zM173 -205q0 -85 120 -85q76 0 123.5 49t47.5 135v502
q0 43 -25.5 71.5t-66.5 28.5t-66.5 -28.5t-25.5 -71.5v-222q0 -10 -10 -10h-56q-10 0 -10 10v222q0 43 -25.5 71.5t-66.5 28.5t-66.5 -28.5t-25.5 -71.5v-316q0 -103 139 -103q18 0 48 1.5t40 1.5q33 0 33 -12v-59q0 -33 -28 -33q-79 0 -79 -81z" />
    <glyph glyph-name="z" unicode="z" horiz-adv-x="539" 
d="M499 63q0 29 -18.5 46t-46.5 17h-190l227 262q15 17 15 43q0 45 -47 45h-327q-28 0 -46.5 -17t-18.5 -46t18.5 -46t46.5 -17h167l-226 -262q-13 -15 -13 -39q0 -49 59 -49h335q28 0 46.5 17t18.5 46zM99 -40q-38 0 -65 20q-34 25 -34 69q0 39 23 65l169 196h-80
q-43 0 -74 28t-31 75t31 75t74 28h327q38 0 62.5 -23.5t24.5 -61.5q0 -41 -25 -69l-169 -196h102q43 0 74 -28t31 -75t-31 -75t-74 -28h-335zM99 -20h335q36 0 60.5 22.5t24.5 60.5t-24.5 60.5t-60.5 22.5h-124q-8 0 -11 5q-2 6 3 12l184 212q20 23 20 56q0 29 -19 47
t-48 18h-327q-35 0 -60 -22.5t-25 -60.5t25 -60.5t60 -22.5h102q8 0 10 -5q2 -6 -3 -12l-183 -212q-18 -21 -18 -52q0 -34 25 -53q22 -16 54 -16z" />
    <glyph glyph-name="braceleft" unicode="{" horiz-adv-x="415" 
d="M376 -109q0 45 -45 45h-25q-44 0 -44 58v189q0 92 -108 101v2q108 9 108 101v189q0 58 44 58h25q45 0 45 45t-45 45h-62q-133 0 -133 -131v-194q0 -66 -48 -66t-48 -48t48 -48t48 -66v-194q0 -131 133 -131h62q45 0 45 45zM302 183v-189q0 -13 2 -17v-1h2h25
q36 0 60.5 -23t24.5 -62t-24.5 -62t-60.5 -23h-62q-173 0 -173 171v194q0 19 -3 24q-2 2 -5 2q-42 0 -67 29q-21 25 -21 59t21 59q25 29 67 29q3 0 5.5 2.5t2.5 23.5v194q0 171 173 171h62q36 0 60.5 -23t24.5 -62t-24.5 -62t-60.5 -23h-25h-2q-2 -3 -2 -18v-189
q0 -66 -38 -102q38 -34 38 -102zM282 183q0 67 -39 93q-12 8 -1 17q40 29 40 94v189q0 38 24 38h25q28 0 46.5 17t18.5 48t-18.5 48t-46.5 17h-62q-153 0 -153 -151v-194q0 -46 -28 -46q-32 0 -50 -20.5t-18 -47.5t17 -46q19 -22 51 -22q28 0 28 -46v-194q0 -151 153 -151
h62q28 0 46.5 17t18.5 48t-18.5 48t-46.5 17h-25q-24 0 -24 38v189z" />
    <glyph glyph-name="bar" unicode="|" horiz-adv-x="212" 
d="M171 -177v797q0 60 -60 60t-60 -60v-797q0 -60 60 -60t60 60zM11 -177v797q0 43 28 71.5t72 28.5t72 -28.5t28 -71.5v-797q0 -44 -28 -72t-72 -28t-72 28t-28 72zM31 -177q0 -35 22 -57.5t58 -22.5t58 22.5t22 57.5v797q0 35 -22 57.5t-58 22.5t-58 -22.5t-22 -57.5v-797
z" />
    <glyph glyph-name="braceright" unicode="}" horiz-adv-x="414" 
d="M376 285q0 48 -48 48t-48 66v194q0 131 -133 131h-62q-45 0 -45 -45t45 -45h25q44 0 44 -58v-189q0 -92 108 -101v-2q-108 -9 -108 -101v-189q0 -58 -44 -58h-25q-45 0 -45 -45t45 -45h62q133 0 133 131v194q0 66 48 66t48 48zM114 387v189q0 13 -2 17v1h-2h-25
q-36 0 -60.5 23t-24.5 62t24.5 62t60.5 23h62q173 0 173 -171v-194q0 -19 2.5 -22.5t5.5 -3.5q42 0 67 -29q21 -25 21 -59t-21 -59q-25 -29 -67 -29q-3 0 -4 -1q-4 -4 -4 -25v-194q0 -171 -173 -171h-62q-36 0 -60.5 23t-24.5 62t24.5 62t60.5 23h25h2q2 3 2 18v189
q0 66 38 102q-38 34 -38 102zM134 387q0 -67 39 -93q12 -8 1 -17q-40 -29 -40 -94v-189q0 -38 -24 -38h-25q-28 0 -46.5 -17t-18.5 -48t18.5 -48t46.5 -17h62q153 0 153 151v194q0 46 28 46q32 0 51 22q17 19 17 46t-18 47.5t-50 20.5q-28 0 -28 46v194q0 151 -153 151h-62
q-28 0 -46.5 -17t-18.5 -48t18.5 -48t46.5 -17h25q24 0 24 -38v-189z" />
    <glyph glyph-name="asciitilde" unicode="~" horiz-adv-x="597" 
d="M559 291q0 49 -43 49q-19 0 -50.5 -30.5t-60.5 -30.5q-23 0 -97.5 34t-114.5 34q-68 0 -112 -43q-40 -39 -40 -89q0 -49 43 -49q19 0 50.5 30.5t60.5 30.5q23 0 97.5 -34t114.5 -34q68 0 112 43q40 39 40 89zM195 187q-12 0 -44.5 -30.5t-66.5 -30.5q-44 0 -66 32
q-17 25 -17 57q0 67 52 117q55 55 140 55q47 0 121 -34t91 -34q12 0 44.5 30.5t66.5 30.5q44 0 66 -32q17 -25 17 -57q0 -67 -52 -117q-55 -55 -140 -55q-48 0 -122.5 34t-89.5 34zM291 172q73 -33 116 -33q77 0 126 49q46 45 46 103q0 27 -13 45q-17 24 -50 24
q-27 0 -58.5 -30.5t-52.5 -30.5q-22 0 -95 34t-117 34q-77 0 -126 -49q-46 -45 -46 -103q0 -27 13 -45q17 -24 50 -24q27 0 58.5 30.5t52.5 30.5q20 0 96 -35z" />
    <glyph glyph-name="dagger" unicode="&#x2020;" 
 />
    <glyph glyph-name="cent" unicode="&#xa2;" 
 />
    <glyph glyph-name="sterling" unicode="&#xa3;" 
 />
    <glyph glyph-name="section" unicode="&#xa7;" 
 />
    <glyph glyph-name="bullet" unicode="&#x2022;" horiz-adv-x="415" 
d="M376 333q0 34 -22.5 56.5t-58.5 22.5q-65 0 -85 -68h-1q-19 68 -87 68q-35 0 -57.5 -22.5t-22.5 -56.5q0 -28 18 -51q15 -20 40 -29l25 -9q66 -23 84 -64q19 42 84 64l25 9q58 20 58 80zM295 452q53 0 87 -34t34 -85q0 -88 -110 -127q-25 -8 -41 -25q-22 -24 -47 -80
q-3 -7 -9 -7t-9 7q-39 88 -85 105q-24 8 -48 17q-20 10 -39 34q-26 34 -26 76q0 50 34 84.5t86 34.5t88 -34q29 34 85 34zM295 432q-36 0 -60.5 -20l-24.5 -20q-3 0 -7 4q-31 36 -81 36q-44 0 -72 -28.5t-28 -70.5q0 -30 17 -57t43 -38q13 -4 40 -13q49 -18 87 -96
q38 78 90 96q97 34 97 108q0 43 -28.5 71t-72.5 28z" />
    <glyph glyph-name="paragraph" unicode="&#xb6;" 
 />
    <glyph glyph-name="germandbls" unicode="&#xdf;" horiz-adv-x="580" 
d="M222 -12q-5 -45 -35.5 -74.5t-75.5 -29.5q-50 0 -81 34.5t-31 85.5v512q0 236 272 236q255 0 255 -188q0 -76 -39 -130q95 -67 95 -207q0 -103 -68 -186q-76 -93 -191 -93q-66 0 -101 40zM222 25q23 -57 101 -57q105 0 175 85q64 78 64 174q0 137 -95 196q-9 6 -2 15
q41 50 41 126q0 98 -72 138q-55 30 -163 30q-252 0 -252 -216v-512q0 -43 25.5 -71.5t66.5 -28.5t66.5 28.5t25.5 71.5v17q0 12 9 12q7 0 10 -8zM275 474q22 8 27.5 17.5t5.5 32.5q0 16 -37 16q-33 0 -42 -17q-6 -10 -6 -47v-28q16 13 52 26zM282 455q-47 -17 -61 -37
q-4 -6 -9 -6q-9 0 -9 11v53q0 44 11 61q14 23 57 23q57 0 57 -36q0 -31 -9.5 -45t-36.5 -24zM246 144q36 12 72 25q40 18 40 58t-19 49q-7 4 -50 4t-66 17v-168q10 9 23 15zM222 95q-3 -8 -10 -8q-9 0 -9 12v222q0 12 9 12q5 0 9 -6q18 -27 67.5 -27t65.5 -9q24 -14 24 -64
q0 -46 -34 -67q-8 -5 -69 -26q-42 -14 -53 -39zM542 227q0 68 -30 120q-33 58 -94 76q68 41 68 141q0 85 -62 120q-50 28 -153 28q-116 0 -172 -45q-60 -47 -60 -151v-512q0 -36 20 -58t52 -22t52 22t20 58v472q0 52 16 75q20 29 72 29q77 0 77 -56q0 -52 -31 -74
q-28 -12 -56 -25q-31 -15 -31 -54q0 -46 44 -50l80 -8q44 -15 44 -86q0 -38 -23.5 -66.5t-56.5 -35.5q-42 -9 -56 -17q-26 -16 -26 -48q0 -72 87 -72q95 0 160 78q59 72 59 161z" />
    <glyph glyph-name="acute" unicode="&#xb4;" horiz-adv-x="321" 
d="M280 711q0 22 -16.5 42t-37.5 20q-14 0 -38 -10l-126 -52q-28 -14 -28 -40q0 -27 15.5 -50t37.5 -23q14 0 40 10l112 44q41 16 41 59zM141 571q-32 -13 -54 -13q-44 0 -71 41q-22 34 -22 72q0 51 50 76l9 4q125 62 173 62q41 0 69 -36q25 -31 25 -66q0 -70 -67 -96z
M134 589l112 44q54 21 54 78q0 28 -21.5 55t-52.5 27q-18 0 -46 -11l-119 -49q-47 -19 -47 -62q0 -33 18 -61q22 -32 55 -32q18 0 47 11z" />
    <glyph glyph-name="dieresis" unicode="&#xa8;" horiz-adv-x="444" 
d="M240 675q0 -38 27 -65t65 -27t65 27t27 65t-27 65t-65 27t-65 -27t-27 -65zM0 675q0 47 32.5 79.5t79.5 32.5q41 0 72 -26t38 -65q7 39 38 65t72 26q47 0 79.5 -32.5t32.5 -79.5t-32.5 -79.5t-79.5 -32.5q-41 0 -72 26t-38 65q-7 -39 -38 -65t-72 -26q-47 0 -79.5 32.5
t-32.5 79.5zM20 675q0 -38 27 -65t65 -27t65 27t27 65t-27 65t-65 27t-65 -27t-27 -65zM404 675q0 30 -21 51t-51 21t-51 -21t-21 -51t21 -51t51 -21t51 21t21 51zM184 675q0 30 -21 51t-51 21t-51 -21t-21 -51t21 -51t51 -21t51 21t21 51z" />
    <glyph glyph-name="AE" unicode="&#xc6;" horiz-adv-x="953" 
d="M914 282q0 178 -250 192h-26q-38 0 -69 -9q-2 33 -22 53t-50 20t-50 -19.5t-22 -52.5q-30 10 -65 10q-13 0 -30 -7q-26 -11 -28 -11q-1 0 -27 11q-18 7 -31 7q-98 0 -156 -74q-48 -63 -48 -141q0 -67 35 -122.5t95 -81.5l5 -2q-1 -3 128 -62q120 52 124 59q13 -58 70 -58
q32 0 52 23q39 -17 89 -17h172q36 0 58 20t22 52t-22 52t-58 20h-169q-46 0 -72 32v42h282q63 0 63 64zM726 266q-14 -7 -29 -4l-14 2q-38 7 -61 -11q1 7 1 14q0 22 -15 46l-9 12q-8 12 -8 28q0 22 16 41t37 19q12 0 22 -6q19 -13 19 -38q0 -12 -4 -25v0q19 19 41 19
q17 0 29 -12t12 -29q0 -39 -37 -56zM424 261q0 -49 -39 -66l-17 -7q-43 -19 -56 -54q-12 35 -56 54l-17 7q-17 7 -28 24.5t-11 41.5q0 28 15 46.5t39 18.5q45 0 58 -56v0q14 56 58 56q24 0 39 -18.5t15 -46.5zM851 178q79 -24 79 -106q0 -50 -34.5 -81t-85.5 -31h-172
q-44 0 -81 11q-27 -17 -60 -17q-56 0 -88 44q-101 -51 -110 -47q-117 50 -141 68q-74 32 -116 96.5t-42 145.5q0 91 57 165q69 90 187 90q20 0 58 -16q38 16 58 16q18 0 36 -3q29 65 101 65q73 0 101 -66q19 2 40 2h45q117 0 193 -62q78 -65 78 -170q0 -104 -103 -104v0z
M20 261q0 -75 39 -135t108 -89l2 -2q22 -16 134 -64q114 50 108 50q3 0 26.5 -23.5t59.5 -23.5q18 0 38 9.5t23 8.5q37 -12 80 -12h172q44 0 72 25.5t28 66.5t-28 66.5t-72 25.5h-169q-23 0 -38 9t-15 18q0 7 11 7h252q83 0 83 84q0 96 -70 154t-181 58h-45q-23 0 -45 -3
q-7 -2 -16 16q-14 23 -25 33q-21 18 -55 18t-55 -17q-11 -10 -25 -33q-9 -17 -16 -16q-20 4 -41 4q-10 0 -34.5 -8.5t-26.5 -7.5q-39 16 -55 16q-108 0 -171 -82q-53 -68 -53 -153z" />
    <glyph glyph-name="Oslash" unicode="&#xd8;" 
 />
    <glyph glyph-name="yen" unicode="&#xa5;" 
 />
    <glyph glyph-name="ordfeminine" unicode="&#xaa;" 
 />
    <glyph glyph-name="ordmasculine" unicode="&#xba;" 
 />
    <glyph glyph-name="ae" unicode="&#xe6;" horiz-adv-x="954" 
d="M914 282q0 178 -250 192h-26q-38 0 -69 -9q-2 33 -22 53t-50 20t-50 -19.5t-22 -52.5q-30 10 -65 10q-13 0 -30 -7q-26 -11 -28 -11q-1 0 -27 11q-18 7 -31 7q-98 0 -156 -74q-48 -63 -48 -141q0 -67 35 -122.5t95 -81.5l5 -2q-1 -3 128 -62q120 52 124 59q13 -58 70 -58
q32 0 52 23q39 -17 89 -17h172q36 0 58 20t22 52t-22 52t-58 20h-169q-46 0 -72 32v42h282q63 0 63 64zM726 266q-14 -7 -29 -4l-14 2q-38 7 -61 -11q1 7 1 14q0 22 -15 46l-9 12q-8 12 -8 28q0 22 16 41t37 19q12 0 22 -6q19 -13 19 -38q0 -12 -4 -25v0q19 19 41 19
q17 0 29 -12t12 -29q0 -39 -37 -56zM424 261q0 -49 -39 -66l-17 -7q-43 -19 -56 -54q-12 35 -56 54l-17 7q-17 7 -28 24.5t-11 41.5q0 28 15 46.5t39 18.5q45 0 58 -56v0q14 56 58 56q24 0 39 -18.5t15 -46.5zM851 178q79 -24 79 -106q0 -50 -34.5 -81t-85.5 -31h-172
q-44 0 -81 11q-27 -17 -60 -17q-56 0 -88 44q-101 -51 -110 -47q-117 50 -141 68q-74 32 -116 96.5t-42 145.5q0 91 57 165q69 90 187 90q20 0 58 -16q38 16 58 16q18 0 36 -3q29 65 101 65q73 0 101 -66q19 2 40 2h45q117 0 193 -62q78 -65 78 -170q0 -104 -103 -104v0z
M20 261q0 -75 39 -135t108 -89l2 -2q22 -16 134 -64q114 50 108 50q3 0 26.5 -23.5t59.5 -23.5q18 0 38 9.5t23 8.5q37 -12 80 -12h172q44 0 72 25.5t28 66.5t-28 66.5t-72 25.5h-169q-23 0 -38 9t-15 18q0 7 11 7h252q83 0 83 84q0 96 -70 154t-181 58h-45q-23 0 -45 -3
q-7 -2 -16 16q-14 23 -25 33q-21 18 -55 18t-55 -17q-11 -10 -25 -33q-9 -17 -16 -16q-20 4 -41 4q-10 0 -34.5 -8.5t-26.5 -7.5q-39 16 -55 16q-108 0 -171 -82q-53 -68 -53 -153z" />
    <glyph glyph-name="oslash" unicode="&#xf8;" horiz-adv-x="532" 
 />
    <glyph glyph-name="questiondown" unicode="&#xbf;" horiz-adv-x="540" 
d="M397 588q0 49 -39 66l-17 7q-43 18 -56 53q-12 -34 -56 -53l-17 -7q-17 -8 -27 -24q-12 -19 -12 -42q0 -28 15 -46.5t39 -18.5q46 0 58 55h1q13 -55 57 -55q24 0 39 18t15 47zM501 185q0 33 -16.5 52.5t-44.5 19.5q-29 0 -72.5 -49.5t-88.5 -49.5q-32 0 -57.5 22
t-25.5 54q0 63 80 85q47 13 56 17q25 12 25 36v70q0 31 -19.5 50t-52.5 19q-31 0 -51.5 -19.5t-20.5 -49.5v-6q-173 -44 -173 -202q0 -99 70.5 -166.5t168.5 -67.5q74 0 145 53q77 58 77 132zM185 493q-52 27 -52 95q0 75 80 110q28 12 63 108q3 8 9 8q7 0 10 -8
q22 -61 25 -68q18 -32 54 -48q63 -27 63 -102q0 -68 -51 -95q11 -23 11 -51v-70q0 -48 -41 -69q-39 -13 -78 -25q-42 -14 -42 -44q0 -14 12.5 -25t30.5 -11q24 0 49 26q23 23 45 47q30 26 67 26q46 0 75 -33q26 -32 26 -79q0 -95 -93 -164q-83 -61 -169 -61q-114 0 -195 78
q-84 80 -84 196q0 174 176 233q3 13 9 26zM208 492q-6 -20 -20 -42q-168 -53 -168 -216q0 -108 78 -182q75 -72 181 -72q80 0 157 57q85 64 85 148q0 40 -22 66t-59 26q-38 0 -81.5 -49.5t-79.5 -49.5q-25 0 -44 16.5t-19 39.5q0 41 42 58l78 24q41 17 41 56v70q0 28 -14 50
q-2 3 -2 6q0 5 16.5 15.5t25.5 22.5q14 20 14 52q0 38 -21 60q-9 9 -46 33q-31 19 -44 41q-9 16 -21 51q-31 -80 -64 -94q-68 -29 -68 -91q0 -32 15 -52q9 -12 27 -24q15 -9 15 -15q0 -2 -2 -5z" />
    <glyph glyph-name="exclamdown" unicode="&#xa1;" horiz-adv-x="300" 
d="M259 598q0 49 -39 66l-17 7q-43 18 -56 53q-12 -34 -56 -53l-17 -7q-17 -8 -27 -24q-12 -19 -12 -42q0 -28 15 -46.5t39 -18.5q45 0 58 55v0q14 -55 58 -55q24 0 39 18t15 47zM219 71v385q0 31 -20.5 49.5t-51.5 18.5t-51.5 -19t-20.5 -49v-385q0 -30 20.5 -49t51.5 -19
t51.5 18.5t20.5 49.5zM35 71v385q0 26 10 47q-50 28 -50 95q0 75 80 110q28 12 62 108q3 8 10 8q6 0 9 -8q22 -61 26 -68q18 -32 54 -48q63 -27 63 -102q0 -67 -50 -94q10 -22 10 -48v-385q0 -49 -32.5 -78.5t-79.5 -29.5q-46 0 -79 30t-33 78zM55 71q0 -39 27 -63.5
t65 -24.5q39 0 65.5 24t26.5 64v385q0 27 -13 47q-1 3 -1 5q0 5 14 15q18 12 26 24q14 20 14 51q0 38 -21 60q-9 9 -46 33q-31 19 -44 41q-9 16 -21 51q-31 -80 -64 -94q-68 -29 -68 -91q0 -31 14 -52q8 -11 26 -23q15 -10 15 -15q0 -2 -2 -5q-13 -21 -13 -47v-385z" />
    <glyph glyph-name="florin" unicode="&#x192;" 
 />
    <glyph glyph-name="guillemotleft" unicode="&#xab;" 
 />
    <glyph glyph-name="guillemotright" unicode="&#xbb;" 
 />
    <glyph glyph-name="ellipsis" unicode="&#x2026;" 
 />
    <glyph glyph-name="OE" unicode="&#x152;" horiz-adv-x="971" 
d="M867 178q80 -24 80 -106q0 -50 -35 -81t-85 -31h-173q-114 0 -181 73q-9 -7 -21.5 -17t-144.5 -67q-8 -3 -109 43q-30 14 -41 25q-73 32 -115 96.5t-42 144.5q0 92 57 166q69 89 187 89q20 0 58 -15q38 15 58 15q82 0 143 -45q62 46 151 46h45q118 0 193 -62
q79 -65 79 -170q0 -104 -103 -104h-1zM20 258q0 -75 39 -134.5t108 -89.5l3 -2q10 -11 133 -63q33 14 67 28q57 25 66 35l2 1q19 13 30 21q8 6 14 -1q62 -73 172 -73h173q43 0 71.5 25.5t28.5 66.5t-28.5 66.5t-71.5 25.5h-170q-23 0 -38 9t-15 18q0 7 11 7h253q83 0 83 84
q0 96 -70.5 154t-181.5 58h-45q-87 0 -145 -47q-6 -5 -13 0q-57 46 -136 46q-10 0 -34.5 -8t-26.5 -7q-39 15 -55 15q-108 0 -171 -81q-53 -68 -53 -154zM931 282q0 178 -251 192h-26q-96 0 -151 -59q-56 58 -143 58q-13 0 -30 -7q-26 -10 -28 -10q-1 0 -27 10q-18 7 -31 7
q-98 0 -156 -74q-48 -62 -48 -141q0 -66 35 -122t95 -81l5 -2q-1 -4 128 -62q118 51 124 59l7 5q25 16 46 34q55 -89 174 -89h173q35 0 57.5 20t22.5 52t-22.5 52t-57.5 20h-170q-37 0 -61 21t-30 53h302q63 0 63 64zM742 266q-14 -7 -28 -4l-15 2q-38 7 -61 -11q2 7 2 14
q0 22 -16 46l-8 12q-9 12 -9 28q0 22 16 41t38 19q11 0 22 -6q19 -13 19 -38q0 -12 -5 -25h1q19 19 40 19q17 0 29 -12t12 -29q0 -39 -37 -56zM424 259q0 -50 -39 -66l-17 -8q-43 -18 -56 -53q-12 35 -56 53l-17 8q-17 7 -28 24.5t-11 40.5q0 29 15 47t39 18q45 0 58 -55v0
q14 55 58 55q24 0 39 -18t15 -46z" />
    <glyph glyph-name="oe" unicode="&#x153;" horiz-adv-x="969" 
d="M867 178q80 -24 80 -106q0 -50 -35 -81t-85 -31h-173q-114 0 -181 73q-9 -7 -21.5 -17t-144.5 -67q-8 -3 -109 43q-30 14 -41 25q-73 32 -115 96.5t-42 144.5q0 92 57 166q69 89 187 89q20 0 58 -15q38 15 58 15q82 0 143 -45q62 46 151 46h45q118 0 193 -62
q79 -65 79 -170q0 -104 -103 -104h-1zM20 258q0 -75 39 -134.5t108 -89.5l3 -2q10 -11 133 -63q33 14 67 28q57 25 66 35l2 1q19 13 30 21q8 6 14 -1q62 -73 172 -73h173q43 0 71.5 25.5t28.5 66.5t-28.5 66.5t-71.5 25.5h-170q-23 0 -38 9t-15 18q0 7 11 7h253q83 0 83 84
q0 96 -70.5 154t-181.5 58h-45q-87 0 -145 -47q-6 -5 -13 0q-57 46 -136 46q-10 0 -34.5 -8t-26.5 -7q-39 15 -55 15q-108 0 -171 -81q-53 -68 -53 -154zM931 282q0 178 -251 192h-26q-96 0 -151 -59q-56 58 -143 58q-13 0 -30 -7q-26 -10 -28 -10q-1 0 -27 10q-18 7 -31 7
q-98 0 -156 -74q-48 -62 -48 -141q0 -66 35 -122t95 -81l5 -2q-1 -4 128 -62q118 51 124 59l7 5q25 16 46 34q55 -89 174 -89h173q35 0 57.5 20t22.5 52t-22.5 52t-57.5 20h-170q-37 0 -61 21t-30 53h302q63 0 63 64zM742 266q-14 -7 -28 -4l-15 2q-38 7 -61 -11q2 7 2 14
q0 22 -16 46l-8 12q-9 12 -9 28q0 22 16 41t38 19q11 0 22 -6q19 -13 19 -38q0 -12 -5 -25h1q19 19 40 19q17 0 29 -12t12 -29q0 -39 -37 -56zM424 259q0 -50 -39 -66l-17 -8q-43 -18 -56 -53q-12 35 -56 53l-17 8q-17 7 -28 24.5t-11 40.5q0 29 15 47t39 18q45 0 58 -55v0
q14 55 58 55q24 0 39 -18t15 -46z" />
    <glyph glyph-name="endash" unicode="&#x2013;" 
 />
    <glyph glyph-name="emdash" unicode="&#x2014;" 
 />
    <glyph glyph-name="quotedblleft" unicode="&#x201c;" 
 />
    <glyph glyph-name="quotedblright" unicode="&#x201d;" 
 />
    <glyph glyph-name="quoteleft" unicode="&#x2018;" 
 />
    <glyph glyph-name="quoteright" unicode="&#x2019;" 
 />
    <glyph glyph-name="currency" unicode="&#xa4;" 
 />
    <glyph glyph-name="guilsinglleft" unicode="&#x2039;" 
 />
    <glyph glyph-name="guilsinglright" unicode="&#x203a;" 
 />
    <glyph glyph-name="daggerdbl" unicode="&#x2021;" 
 />
    <glyph glyph-name="periodcentered" unicode="&#xb7;" 
 />
    <glyph glyph-name="periodcentered" unicode="&#x2219;" 
 />
    <glyph glyph-name="quotesinglbase" unicode="&#x201a;" 
 />
    <glyph glyph-name="quotedblbase" unicode="&#x201e;" 
 />
    <glyph glyph-name="perthousand" unicode="&#x2030;" 
 />
    <glyph glyph-name="circumflex" unicode="&#x2c6;" horiz-adv-x="383" 
d="M343 660q0 42 -46 61l-106 43l-106 -43q-46 -19 -46 -61q0 -24 18.5 -44t42.5 -20q11 0 52 18l39 17l39 -17q41 -18 52 -18q24 0 42.5 20t18.5 44zM191 587q-70 -31 -91 -31q-41 0 -71 32t-30 72q0 69 71 98l117 48h8l117 -48q71 -29 71 -98q0 -40 -30 -72t-71 -32
q-21 0 -91 31zM282 576q33 0 57 26t24 58q0 56 -58 80l-114 46l-114 -46q-58 -24 -58 -80q0 -32 24 -58t57 -26q13 0 52 16.5t43 14.5q72 -31 87 -31z" />
    <glyph glyph-name="tilde" unicode="&#x2dc;" horiz-adv-x="407" 
d="M367 693q0 23 -12.5 39.5t-34.5 16.5q-14 0 -41.5 -14.5t-36.5 -14.5t-47.5 12.5t-64.5 12.5q-40 0 -67.5 -24t-27.5 -64q0 -19 15.5 -35.5t34.5 -16.5q18 0 39 13t32 13q10 0 52.5 -12.5t60.5 -12.5q37 0 67.5 25.5t30.5 61.5zM205 579q-38 12 -49 12
q-15 -9 -31.5 -17.5t-39.5 -8.5q-36 0 -63 28.5t-27 63.5q0 59 42 95q38 33 93 33q20 0 94 -21q12 -4 18 -4q19 9 37 19q22 10 41 10q43 0 67 -34q20 -27 20 -62q0 -56 -46 -93q-41 -34 -92 -34q-22 0 -64 13zM269 586q44 0 79 29q39 32 39 78q0 29 -16 51q-19 25 -51 25
q-17 0 -45.5 -14.5t-32.5 -14.5q-14 0 -52 12.5t-60 12.5q-48 0 -80 -28q-35 -31 -35 -80q0 -27 21.5 -49.5t48.5 -22.5q21 0 43.5 13t27.5 13q14 0 54 -12.5t59 -12.5z" />
    <glyph glyph-name="macron" unicode="&#xaf;" horiz-adv-x="398" 
d="M359 670q0 60 -65 60h-186q-65 0 -65 -60t65 -60h186q65 0 65 60zM108 570q-44 0 -73 25q-32 28 -32 75t32 75q30 25 73 25h186q43 0 73 -25q32 -28 32 -75t-30.5 -73.5t-74.5 -26.5h-186zM108 590h186q37 0 61 21t24 59t-24.5 59t-60.5 21h-186q-36 0 -60.5 -21
t-24.5 -59t24 -59t61 -21z" />
    <glyph glyph-name="macron" unicode="&#x2c9;" horiz-adv-x="398" 
d="M359 670q0 60 -65 60h-186q-65 0 -65 -60t65 -60h186q65 0 65 60zM108 570q-44 0 -73 25q-32 28 -32 75t32 75q30 25 73 25h186q43 0 73 -25q32 -28 32 -75t-30.5 -73.5t-74.5 -26.5h-186zM108 590h186q37 0 61 21t24 59t-24.5 59t-60.5 21h-186q-36 0 -60.5 -21
t-24.5 -59t24 -59t61 -21z" />
    <glyph glyph-name="cedilla" unicode="&#xb8;" 
 />
    <glyph glyph-name="Eth" unicode="&#xd0;" 
 />
    <glyph glyph-name="eth" unicode="&#xf0;" 
 />
    <glyph glyph-name="Scaron" unicode="&#x160;" 
 />
    <glyph glyph-name="scaron" unicode="&#x161;" 
 />
    <glyph glyph-name="Yacute" unicode="&#xdd;" 
 />
    <glyph glyph-name="yacute" unicode="&#xfd;" 
 />
    <glyph glyph-name="Thorn" unicode="&#xde;" 
 />
    <glyph glyph-name="thorn" unicode="&#xfe;" 
 />
    <glyph glyph-name="Zcaron" unicode="&#x17d;" 
 />
    <glyph glyph-name="zcaron" unicode="&#x17e;" 
 />
    <glyph glyph-name="onehalf" unicode="&#xbd;" 
 />
    <glyph glyph-name="onequarter" unicode="&#xbc;" 
 />
    <glyph glyph-name="onesuperior" unicode="&#xb9;" 
 />
    <glyph glyph-name="threequarters" unicode="&#xbe;" 
 />
    <glyph glyph-name="threesuperior" unicode="&#xb3;" 
 />
    <glyph glyph-name="twosuperior" unicode="&#xb2;" 
 />
    <glyph glyph-name="brokenbar" unicode="&#xa6;" 
 />
    <glyph glyph-name="minus" unicode="&#xad;" 
 />
    <glyph glyph-name="minus" unicode="&#x2212;" 
 />
    <glyph glyph-name="multiply" unicode="&#xd7;" 
 />
    <glyph glyph-name="Adieresis" unicode="&#xc4;" horiz-adv-x="597" 
d="M556 78v556q0 37 -20.5 57.5t-54.5 20.5h-195q-68 0 -108 -42q-43 -44 -43 -122v-200h-32q-27 0 -45 -18t-18 -45q0 -63 63 -63h32v-142q0 -36 20 -58t52 -22t52 22t20 58v142h127v-144q0 -37 21 -57.5t54 -20.5q34 0 54.5 20.5t20.5 57.5zM366 78v104h-47v-102
q0 -51 -31 -85.5t-81 -34.5t-81 34.5t-31 85.5v102q-42 4 -68.5 32t-26.5 71q0 41 26.5 70t66.5 33l2 160q1 94 53.5 149t137.5 55h195q50 0 82.5 -32.5t32.5 -85.5v-556q0 -53 -32.5 -85.5t-82.5 -32.5q-49 0 -82 32.5t-33 85.5zM386 78q0 -45 27 -71.5t68 -26.5
q42 0 68.5 26.5t26.5 71.5v556q0 45 -26.5 71.5t-68.5 26.5h-195q-92 0 -134 -63q-32 -49 -38 -142q-1 -75 -1 -149q0 -10 -10 -10q-35 0 -59 -24t-24 -59q0 -37 23.5 -60t61.5 -23q10 0 10 -10v-112q0 -43 25.5 -71.5t66.5 -28.5t66.5 28.5t25.5 71.5v112q0 10 10 10h67
q10 0 10 -10v-114zM463 412q0 -49 -39 -66l-17 -7q-43 -18 -56 -53q-12 34 -56 53l-17 7q-17 8 -28 25.5t-11 40.5q0 28 15 46.5t39 18.5q45 0 58 -55v0q14 55 58 55q24 0 39 -18t15 -47zM492 845q0 -38 27 -65t65 -27t65 27t27 65t-27 65t-65 27t-65 -27t-27 -65zM252 845
q0 47 32.5 79.5t79.5 32.5q41 0 72 -26t38 -65q7 39 38 65t72 26q47 0 79.5 -32.5t32.5 -79.5t-32.5 -79.5t-79.5 -32.5q-41 0 -72 26t-38 65q-7 -39 -38 -65t-72 -26q-47 0 -79.5 32.5t-32.5 79.5zM272 845q0 -38 27 -65t65 -27t65 27t27 65t-27 65t-65 27t-65 -27t-27 -65
zM656 845q0 30 -21 51t-51 21t-51 -21t-21 -51t21 -51t51 -21t51 21t21 51zM436 845q0 30 -21 51t-51 21t-51 -21t-21 -51t21 -51t51 -21t51 21t21 51z" />
    <glyph glyph-name="Aring" unicode="&#xc5;" horiz-adv-x="598" 
d="M479 879q0 41 -29 70t-70 29t-70 -29t-29 -70t29 -70t70 -29t70 29t29 70zM425 879q0 -19 -13 -32t-32 -13t-32 13t-13 32t13 32t32 13t32 -13t13 -32zM241 879q0 58 40.5 98.5t98.5 40.5t98.5 -40.5t40.5 -98.5t-40.5 -98.5t-98.5 -40.5t-98.5 40.5t-40.5 98.5zM261 879
q0 -50 34.5 -84.5t84.5 -34.5t84.5 34.5t34.5 84.5t-34.5 84.5t-84.5 34.5t-84.5 -34.5t-34.5 -84.5zM556 78v556q0 37 -20.5 57.5t-54.5 20.5h-195q-68 0 -108 -42q-43 -44 -43 -122v-200h-32q-27 0 -45 -18t-18 -45q0 -63 63 -63h32v-142q0 -36 20 -58t52 -22t52 22t20 58
v142h127v-144q0 -37 21 -57.5t54 -20.5q34 0 54.5 20.5t20.5 57.5zM366 78v104h-47v-102q0 -51 -31 -85.5t-81 -34.5t-81 34.5t-31 85.5v102q-42 4 -68.5 32t-26.5 71q0 41 26.5 70t66.5 33l2 160q1 94 53.5 149t137.5 55h195q50 0 82.5 -32.5t32.5 -85.5v-556
q0 -53 -32.5 -85.5t-82.5 -32.5q-49 0 -82 32.5t-33 85.5zM386 78q0 -45 27 -71.5t68 -26.5q42 0 68.5 26.5t26.5 71.5v556q0 45 -26.5 71.5t-68.5 26.5h-195q-92 0 -134 -63q-32 -49 -38 -142q-1 -75 -1 -149q0 -10 -10 -10q-35 0 -59 -24t-24 -59q0 -37 23.5 -60t61.5 -23
q10 0 10 -10v-112q0 -43 25.5 -71.5t66.5 -28.5t66.5 28.5t25.5 71.5v112q0 10 10 10h67q10 0 10 -10v-114zM463 412q0 -49 -39 -66l-17 -7q-43 -18 -56 -53q-12 34 -56 53l-17 7q-17 8 -28 25.5t-11 40.5q0 28 15 46.5t39 18.5q45 0 58 -55v0q14 55 58 55q24 0 39 -18
t15 -47z" />
    <glyph glyph-name="Ccedilla" unicode="&#xc7;" horiz-adv-x="587" 
d="M-43 354q0 143 93 263q101 130 242 130h177q53 0 85.5 -32.5t32.5 -82.5t-32.5 -82.5t-85.5 -32.5h-169q-43 0 -84 -52t-41 -111q0 -62 39.5 -113t85.5 -51h169q53 0 85.5 -32.5t32.5 -82.5t-32.5 -82.5t-85.5 -32.5h-11q18 -28 18 -66q0 -67 -54 -104q-43 -30 -97 -30
q-43 0 -79 18q-51 24 -51 72q0 49 44 63q-7 13 -7 32q0 8 5 21q-122 25 -204 146q-76 113 -76 242zM-23 354q0 -126 76 -236q82 -116 200 -135q8 -1 8 -9q0 -4 -4.5 -15t-4.5 -14q0 -19 9.5 -29t9.5 -11t-28 -14t-28 -41q0 -35 40 -54q31 -16 70 -16q48 0 86 26q45 32 45 88
q0 42 -26 69q-6 6 -4 11q3 6 11 6h32q45 0 71.5 27t26.5 68t-26.5 68t-71.5 27h-169q-56 0 -100.5 58t-44.5 126q0 65 46 124t99 59h169q45 0 71.5 27t26.5 68t-26.5 68t-71.5 27h-177q-131 0 -226 -122q-89 -115 -89 -251zM547 75q0 33 -20.5 54t-57.5 21h-169
q-66 0 -115.5 65t-49.5 139q0 71 50.5 137t114.5 66h169q37 0 57.5 21t20.5 54t-20.5 54t-57.5 21h-177q-121 0 -210 -115q-85 -108 -85 -238q0 -132 84 -240q89 -114 211 -114h13l-11 -15q-22 -31 -22 -40q0 -15 11 -19q3 -2 23 -4q34 0 34 -28q0 -30 -33 -28q-9 1 -26 5.5
t-22 4.5q-24 0 -24 -26q0 -50 90 -50q42 0 74 23q37 26 37 71q0 35 -21 55.5t-54 20.5q-3 0 -10.5 -1.5t-11.5 -1.5l25 33h105q37 0 57.5 21t20.5 54z" />
    <glyph glyph-name="Eacute" unicode="&#xc9;" horiz-adv-x="500" 
d="M461 69q0 28 -18.5 48.5t-52.5 20.5h-200v92h179q34 0 54 22q19 19 19 47t-19 48.5t-54 20.5h-179v122h193q37 0 57.5 21t20.5 54t-20.5 54t-57.5 21h-193q-2 34 -22.5 53t-52.5 19q-33 0 -54 -20.5t-21 -57.5v-556q0 -37 21 -57.5t54 -20.5h275q33 0 53 22q18 19 18 47z
M115 -40q-50 0 -82.5 32.5t-32.5 85.5v556q0 53 32.5 85.5t82.5 32.5q81 0 107 -72h161q53 0 85.5 -32.5t32.5 -82.5t-32.5 -82.5t-85.5 -32.5h-153v-42h139q52 0 84 -34q29 -31 29 -75q0 -43 -29 -75q-33 -34 -84 -34h-139v-12h160q52 0 83 -34q28 -31 28 -75
q0 -43 -28 -74q-32 -35 -83 -35h-275zM115 -20h275q42 0 68 28q23 26 23 61q0 36 -24 62.5t-67 26.5h-170q-10 0 -10 10v32q0 10 10 10h149q43 0 68 27t25 62q0 36 -24.5 62.5t-68.5 26.5h-149q-10 0 -10 10v62q0 10 10 10h163q45 0 71.5 27t26.5 68t-26.5 68t-71.5 27h-168
q-6 0 -16 19q-12 23 -25 34q-22 19 -59 19q-42 0 -68.5 -26.5t-26.5 -71.5v-556q0 -45 26.5 -71.5t68.5 -26.5zM401 883q0 22 -16.5 42t-37.5 20q-14 0 -38 -10l-126 -52q-28 -14 -28 -40q0 -27 15.5 -50t37.5 -23q14 0 40 10l112 44q41 16 41 59zM262 743q-32 -13 -54 -13
q-44 0 -71 41q-22 34 -22 72q0 51 50 76l9 4q125 62 173 62q41 0 69 -36q25 -31 25 -66q0 -70 -67 -96zM255 761l112 44q54 21 54 78q0 28 -21.5 55t-52.5 27q-18 0 -46 -11l-119 -49q-47 -19 -47 -62q0 -33 18 -61q22 -32 55 -32q18 0 47 11z" />
    <glyph glyph-name="Ntilde" unicode="&#xd1;" horiz-adv-x="554" 
d="M514 80v394q0 90 -55 142t-142 52q-96 0 -139 -59v50q-8 53 -66 53q-31 0 -51.5 -22t-20.5 -58v-552q0 -36 20.5 -58t51.5 -22q32 0 52 22t20 58v369q0 43 24.5 71t67.5 28q42 0 67 -24q27 -27 27 -75v-369q0 -36 20.5 -58t51.5 -22q32 0 52 22t20 58zM317 708
q103 0 169 -62q68 -65 68 -172v-394q0 -51 -31 -85.5t-81 -34.5q-49 0 -80.5 34.5t-31.5 85.5v369q0 59 -54 59q-52 0 -52 -59v-369q0 -51 -31 -85.5t-81 -34.5q-49 0 -80.5 34.5t-31.5 85.5v552q0 51 31.5 85.5t80.5 34.5q75 0 100 -64q43 20 105 20zM317 688
q-64 0 -106 -23q-12 -7 -15 6q-16 61 -84 61q-40 0 -66 -28.5t-26 -71.5v-552q0 -43 26 -71.5t66 -28.5q41 0 66.5 28.5t25.5 71.5v369q0 79 72 79q74 0 74 -79v-369q0 -43 26 -71.5t66 -28.5q41 0 66.5 28.5t25.5 71.5v394q0 98 -61 156t-156 58zM452 867q0 23 -12.5 39.5
t-34.5 16.5q-14 0 -41.5 -14.5t-36.5 -14.5t-47.5 12.5t-64.5 12.5q-40 0 -67.5 -24t-27.5 -64q0 -19 15.5 -35.5t34.5 -16.5q18 0 39 13t32 13q10 0 52.5 -12.5t60.5 -12.5q37 0 67.5 25.5t30.5 61.5zM290 753q-38 12 -49 12q-15 -9 -31.5 -17.5t-39.5 -8.5q-36 0 -63 28.5
t-27 63.5q0 59 42 95q38 33 93 33q20 0 94 -21q12 -4 18 -4q19 9 37 19q22 10 41 10q43 0 67 -34q20 -27 20 -62q0 -56 -46 -93q-41 -34 -92 -34q-22 0 -64 13zM354 760q44 0 79 29q39 32 39 78q0 29 -16 51q-19 25 -51 25q-17 0 -45.5 -14.5t-32.5 -14.5q-14 0 -52 12.5
t-60 12.5q-48 0 -80 -28q-35 -31 -35 -80q0 -27 21.5 -49.5t48.5 -22.5q21 0 43.5 13t27.5 13q14 0 54 -12.5t59 -12.5z" />
    <glyph glyph-name="Odieresis" unicode="&#xd6;" horiz-adv-x="803" 
d="M400 720q10 9 29.5 18t29.5 9q166 0 265 -141q79 -114 79 -244q0 -100 -51 -188q-57 -98 -162 -143q-12 -11 -185 -85q-7 -3 -127 52q-18 7 -49 25q-106 46 -167 133q-63 91 -63 206q0 128 78 242q98 143 266 143q24 0 57 -27zM412 703v0l-16 -6q-38 30 -53 30
q-157 0 -250 -134q-74 -108 -74 -231q0 -109 60 -195q58 -82 159 -126l3 -1q12 -10 160 -74q82 34 176 80l3 2q100 43 155 136q48 82 48 178q0 124 -76 232q-93 133 -248 133q-6 0 -25 -9t-22 -15zM763 362q0 118 -72 221q-87 124 -232 124q-11 0 -31 -16.5t-28 -18.5
q-8 2 -27 18.5t-30 16.5q-146 0 -233 -126q-71 -102 -71 -219q0 -103 55.5 -182t151.5 -121q-31 8 155 -71q88 38 133 58q31 15 38 19v2q94 40 145 127q46 78 46 168zM513 362q0 -49 -39 -66l-17 -7q-43 -18 -56 -53q-12 34 -56 53l-17 7q-17 8 -28 25.5t-11 40.5
q0 28 15 46.5t39 18.5q45 0 58 -55v0q14 55 58 55q24 0 39 -18t15 -47zM530 837q0 -38 27 -65t65 -27t65 27t27 65t-27 65t-65 27t-65 -27t-27 -65zM290 837q0 47 32.5 79.5t79.5 32.5q41 0 72 -26t38 -65q7 39 38 65t72 26q47 0 79.5 -32.5t32.5 -79.5t-32.5 -79.5
t-79.5 -32.5q-41 0 -72 26t-38 65q-7 -39 -38 -65t-72 -26q-47 0 -79.5 32.5t-32.5 79.5zM310 837q0 -38 27 -65t65 -27t65 27t27 65t-27 65t-65 27t-65 -27t-27 -65zM694 837q0 30 -21 51t-51 21t-51 -21t-21 -51t21 -51t51 -21t51 21t21 51zM474 837q0 30 -21 51t-51 21
t-51 -21t-21 -51t21 -51t51 -21t51 21t21 51z" />
    <glyph glyph-name="Udieresis" unicode="&#xdc;" horiz-adv-x="553" 
d="M513 36v596q0 36 -20 58t-52 22t-52 -22t-20 -58v-413q0 -43 -24.5 -71t-67.5 -28q-41 0 -67.5 25.5t-26.5 73.5v413q0 36 -20 58t-52 22t-52 -22t-20 -58v-438q0 -90 55 -142t142 -52q96 0 139 59v-50q8 -53 66 -53q32 0 52 22t20 58zM236 -40q-103 0 -170 63.5
t-67 170.5v438q0 51 31 85.5t81 34.5t81 -34.5t31 -85.5v-413q0 -59 54 -59q52 0 52 59v413q0 51 31 85.5t81 34.5t81 -34.5t31 -85.5v-596q0 -51 -31 -85.5t-81 -34.5q-75 0 -100 64q-43 -20 -105 -20zM236 -20q64 0 106 23q12 7 15 -6q16 -61 84 -61q40 0 66 28.5t26 71.5
v596q0 43 -26 71.5t-66 28.5q-41 0 -66.5 -28.5t-25.5 -71.5v-413q0 -79 -72 -79q-74 0 -74 79v413q0 43 -26 71.5t-66 28.5q-41 0 -66.5 -28.5t-25.5 -71.5v-438q0 -98 61 -156t156 -58zM402 837q0 -38 27 -65t65 -27t65 27t27 65t-27 65t-65 27t-65 -27t-27 -65zM162 837
q0 47 32.5 79.5t79.5 32.5q41 0 72 -26t38 -65q7 39 38 65t72 26q47 0 79.5 -32.5t32.5 -79.5t-32.5 -79.5t-79.5 -32.5q-41 0 -72 26t-38 65q-7 -39 -38 -65t-72 -26q-47 0 -79.5 32.5t-32.5 79.5zM182 837q0 -38 27 -65t65 -27t65 27t27 65t-27 65t-65 27t-65 -27t-27 -65
zM566 837q0 30 -21 51t-51 21t-51 -21t-21 -51t21 -51t51 -21t51 21t21 51zM346 837q0 30 -21 51t-51 21t-51 -21t-21 -51t21 -51t51 -21t51 21t21 51z" />
    <glyph glyph-name="aacute" unicode="&#xe1;" horiz-adv-x="609" 
d="M569 74v384q0 36 -20.5 58t-51.5 22q-30 0 -50 -19.5t-22 -52.5q-30 10 -65 10q-13 0 -30 -7q-26 -11 -28 -11q-1 0 -27 11q-18 7 -31 7q-98 0 -156 -74q-48 -63 -48 -141q0 -67 35 -122.5t95 -81.5l5 -2q-1 -3 128 -62q120 52 124 59q13 -58 70 -58q31 0 51.5 22.5
t20.5 57.5zM424 261q0 -49 -39 -66l-17 -7q-43 -19 -56 -54q-12 35 -56 54l-17 7q-17 7 -28 24.5t-11 41.5q0 28 15 46.5t39 18.5q45 0 58 -56v0q14 56 58 56q24 0 39 -18.5t15 -46.5zM0 261q0 91 57 165q69 90 187 90q20 0 58 -16q38 16 58 16q18 0 36 -3q29 65 101 65
q50 0 81 -34.5t31 -85.5v-384q0 -51 -31 -85.5t-81 -34.5q-56 0 -88 44q-101 -51 -110 -47l-72 30q-56 25 -70 38q-73 32 -115 96.5t-42 145.5zM20 261q0 -75 39 -135t108 -89l3 -3q10 -10 133 -63q114 50 108 50q3 0 26.5 -23.5t59.5 -23.5q40 0 66 28.5t26 71.5v384
q0 44 -26 72t-66 28q-34 0 -55 -17q-11 -10 -25 -33q-9 -17 -16 -16q-20 4 -41 4q-10 0 -34.5 -8.5t-26.5 -7.5q-39 16 -55 16q-108 0 -171 -82q-53 -68 -53 -153zM456 711q0 22 -16.5 42t-37.5 20q-14 0 -38 -10l-126 -52q-28 -14 -28 -40q0 -27 15.5 -50t37.5 -23
q14 0 40 10l112 44q41 16 41 59zM317 571q-32 -13 -54 -13q-44 0 -71 41q-22 34 -22 72q0 51 50 76l9 4q125 62 173 62q41 0 69 -36q25 -31 25 -66q0 -70 -67 -96zM310 589l112 44q54 21 54 78q0 28 -21.5 55t-52.5 27q-18 0 -46 -11l-119 -49q-47 -19 -47 -62q0 -33 18 -61
q22 -32 55 -32q18 0 47 11z" />
    <glyph glyph-name="agrave" unicode="&#xe0;" horiz-adv-x="609" 
d="M569 74v384q0 36 -20.5 58t-51.5 22q-30 0 -50 -19.5t-22 -52.5q-30 10 -65 10q-13 0 -30 -7q-26 -11 -28 -11q-1 0 -27 11q-18 7 -31 7q-98 0 -156 -74q-48 -63 -48 -141q0 -67 35 -122.5t95 -81.5l5 -2q-1 -3 128 -62q120 52 124 59q13 -58 70 -58q31 0 51.5 22.5
t20.5 57.5zM424 261q0 -49 -39 -66l-17 -7q-43 -19 -56 -54q-12 35 -56 54l-17 7q-17 7 -28 24.5t-11 41.5q0 28 15 46.5t39 18.5q45 0 58 -56v0q14 56 58 56q24 0 39 -18.5t15 -46.5zM0 261q0 91 57 165q69 90 187 90q20 0 58 -16q38 16 58 16q18 0 36 -3q29 65 101 65
q50 0 81 -34.5t31 -85.5v-384q0 -51 -31 -85.5t-81 -34.5q-56 0 -88 44q-101 -51 -110 -47l-72 30q-56 25 -70 38q-73 32 -115 96.5t-42 145.5zM20 261q0 -75 39 -135t108 -89l3 -3q10 -10 133 -63q114 50 108 50q3 0 26.5 -23.5t59.5 -23.5q40 0 66 28.5t26 71.5v384
q0 44 -26 72t-66 28q-34 0 -55 -17q-11 -10 -25 -33q-9 -17 -16 -16q-20 4 -41 4q-10 0 -34.5 -8.5t-26.5 -7.5q-39 16 -55 16q-108 0 -171 -82q-53 -68 -53 -153zM462 660q0 26 -28 40l-8 4l-118 48q-25 10 -38 10q-21 0 -37.5 -20.5t-16.5 -41.5q0 -43 41 -59l112 -44
q25 -10 40 -10q22 0 37.5 22.5t15.5 50.5zM399 546q-14 0 -79 25q-60 22 -76 30q-68 36 -68 99q0 34 25 66q28 36 69 36q48 0 172 -62l10 -5q50 -24 50 -75q0 -39 -22 -73q-27 -40 -71 -40zM399 566l10 1q33 0 54 32q19 28 19 61q0 38 -39 57l-8 5l-119 48q-29 12 -46 12
q-31 0 -54 -29q-20 -25 -20 -53q0 -52 61 -83q52 -20 105 -39q29 -12 37 -12z" />
    <glyph glyph-name="acircumflex" unicode="&#xe2;" horiz-adv-x="609" 
d="M569 74v384q0 36 -20.5 58t-51.5 22q-30 0 -50 -19.5t-22 -52.5q-30 10 -65 10q-13 0 -30 -7q-26 -11 -28 -11q-1 0 -27 11q-18 7 -31 7q-98 0 -156 -74q-48 -63 -48 -141q0 -67 35 -122.5t95 -81.5l5 -2q-1 -3 128 -62q120 52 124 59q13 -58 70 -58q31 0 51.5 22.5
t20.5 57.5zM424 261q0 -49 -39 -66l-17 -7q-43 -19 -56 -54q-12 35 -56 54l-17 7q-17 7 -28 24.5t-11 41.5q0 28 15 46.5t39 18.5q45 0 58 -56v0q14 56 58 56q24 0 39 -18.5t15 -46.5zM0 261q0 91 57 165q69 90 187 90q20 0 58 -16q38 16 58 16q18 0 36 -3q29 65 101 65
q50 0 81 -34.5t31 -85.5v-384q0 -51 -31 -85.5t-81 -34.5q-56 0 -88 44q-101 -51 -110 -47l-72 30q-56 25 -70 38q-73 32 -115 96.5t-42 145.5zM20 261q0 -75 39 -135t108 -89l3 -3q10 -10 133 -63q114 50 108 50q3 0 26.5 -23.5t59.5 -23.5q40 0 66 28.5t26 71.5v384
q0 44 -26 72t-66 28q-34 0 -55 -17q-11 -10 -25 -33q-9 -17 -16 -16q-20 4 -41 4q-10 0 -34.5 -8.5t-26.5 -7.5q-39 16 -55 16q-108 0 -171 -82q-53 -68 -53 -153zM449 659q0 42 -46 61l-106 43l-106 -43q-46 -19 -46 -61q0 -24 18.5 -44t42.5 -20q11 0 52 18l39 17l39 -17
q41 -18 52 -18q24 0 42.5 20t18.5 44zM297 586q-70 -31 -91 -31q-41 0 -71 32t-30 72q0 69 71 98l117 48h8l117 -48q71 -29 71 -98q0 -40 -30 -72t-71 -32q-21 0 -91 31zM388 575q33 0 57 26t24 58q0 56 -58 80l-114 46l-114 -46q-58 -24 -58 -80q0 -32 24 -58t57 -26
q13 0 52 16.5t43 14.5q72 -31 87 -31z" />
    <glyph glyph-name="adieresis" unicode="&#xe4;" horiz-adv-x="609" 
d="M569 74v384q0 36 -20.5 58t-51.5 22q-30 0 -50 -19.5t-22 -52.5q-30 10 -65 10q-13 0 -30 -7q-26 -11 -28 -11q-1 0 -27 11q-18 7 -31 7q-98 0 -156 -74q-48 -63 -48 -141q0 -67 35 -122.5t95 -81.5l5 -2q-1 -3 128 -62q120 52 124 59q13 -58 70 -58q31 0 51.5 22.5
t20.5 57.5zM424 261q0 -49 -39 -66l-17 -7q-43 -19 -56 -54q-12 35 -56 54l-17 7q-17 7 -28 24.5t-11 41.5q0 28 15 46.5t39 18.5q45 0 58 -56v0q14 56 58 56q24 0 39 -18.5t15 -46.5zM0 261q0 91 57 165q69 90 187 90q20 0 58 -16q38 16 58 16q18 0 36 -3q29 65 101 65
q50 0 81 -34.5t31 -85.5v-384q0 -51 -31 -85.5t-81 -34.5q-56 0 -88 44q-101 -51 -110 -47l-72 30q-56 25 -70 38q-73 32 -115 96.5t-42 145.5zM20 261q0 -75 39 -135t108 -89l3 -3q10 -10 133 -63q114 50 108 50q3 0 26.5 -23.5t59.5 -23.5q40 0 66 28.5t26 71.5v384
q0 44 -26 72t-66 28q-34 0 -55 -17q-11 -10 -25 -33q-9 -17 -16 -16q-20 4 -41 4q-10 0 -34.5 -8.5t-26.5 -7.5q-39 16 -55 16q-108 0 -171 -82q-53 -68 -53 -153zM436 675q0 -38 27 -65t65 -27t65 27t27 65t-27 65t-65 27t-65 -27t-27 -65zM196 675q0 47 32.5 79.5
t79.5 32.5q41 0 72 -26t38 -65q7 39 38 65t72 26q47 0 79.5 -32.5t32.5 -79.5t-32.5 -79.5t-79.5 -32.5q-41 0 -72 26t-38 65q-7 -39 -38 -65t-72 -26q-47 0 -79.5 32.5t-32.5 79.5zM216 675q0 -38 27 -65t65 -27t65 27t27 65t-27 65t-65 27t-65 -27t-27 -65zM600 675
q0 30 -21 51t-51 21t-51 -21t-21 -51t21 -51t51 -21t51 21t21 51zM380 675q0 30 -21 51t-51 21t-51 -21t-21 -51t21 -51t51 -21t51 21t21 51z" />
    <glyph glyph-name="atilde" unicode="&#xe3;" horiz-adv-x="609" 
d="M569 74v384q0 36 -20.5 58t-51.5 22q-30 0 -50 -19.5t-22 -52.5q-30 10 -65 10q-13 0 -30 -7q-26 -11 -28 -11q-1 0 -27 11q-18 7 -31 7q-98 0 -156 -74q-48 -63 -48 -141q0 -67 35 -122.5t95 -81.5l5 -2q-1 -3 128 -62q120 52 124 59q13 -58 70 -58q31 0 51.5 22.5
t20.5 57.5zM424 261q0 -49 -39 -66l-17 -7q-43 -19 -56 -54q-12 35 -56 54l-17 7q-17 7 -28 24.5t-11 41.5q0 28 15 46.5t39 18.5q45 0 58 -56v0q14 56 58 56q24 0 39 -18.5t15 -46.5zM0 261q0 91 57 165q69 90 187 90q20 0 58 -16q38 16 58 16q18 0 36 -3q29 65 101 65
q50 0 81 -34.5t31 -85.5v-384q0 -51 -31 -85.5t-81 -34.5q-56 0 -88 44q-101 -51 -110 -47l-72 30q-56 25 -70 38q-73 32 -115 96.5t-42 145.5zM20 261q0 -75 39 -135t108 -89l3 -3q10 -10 133 -63q114 50 108 50q3 0 26.5 -23.5t59.5 -23.5q40 0 66 28.5t26 71.5v384
q0 44 -26 72t-66 28q-34 0 -55 -17q-11 -10 -25 -33q-9 -17 -16 -16q-20 4 -41 4q-10 0 -34.5 -8.5t-26.5 -7.5q-39 16 -55 16q-108 0 -171 -82q-53 -68 -53 -153zM473 683q0 23 -12.5 39.5t-34.5 16.5q-14 0 -41.5 -14.5t-36.5 -14.5t-47.5 12.5t-64.5 12.5
q-40 0 -67.5 -24t-27.5 -64q0 -19 15.5 -35.5t34.5 -16.5q18 0 39 13t32 13q10 0 52.5 -12.5t60.5 -12.5q37 0 67.5 25.5t30.5 61.5zM311 569q-38 12 -49 12q-15 -9 -31.5 -17.5t-39.5 -8.5q-36 0 -63 28.5t-27 63.5q0 59 42 95q38 33 93 33q20 0 94 -21q12 -4 18 -4
q19 9 37 19q22 10 41 10q43 0 67 -34q20 -27 20 -62q0 -56 -46 -93q-41 -34 -92 -34q-22 0 -64 13zM375 576q44 0 79 29q39 32 39 78q0 29 -16 51q-19 25 -51 25q-17 0 -45.5 -14.5t-32.5 -14.5q-14 0 -52 12.5t-60 12.5q-48 0 -80 -28q-35 -31 -35 -80q0 -27 21.5 -49.5
t48.5 -22.5q21 0 43.5 13t27.5 13q14 0 54 -12.5t59 -12.5z" />
    <glyph glyph-name="aring" unicode="&#xe5;" horiz-adv-x="609" 
d="M406 678q0 41 -29 70t-70 29t-70 -29t-29 -70t29 -70t70 -29t70 29t29 70zM352 678q0 -19 -13 -32t-32 -13t-32 13t-13 32t13 32t32 13t32 -13t13 -32zM168 678q0 58 40.5 98.5t98.5 40.5t98.5 -40.5t40.5 -98.5t-40.5 -98.5t-98.5 -40.5t-98.5 40.5t-40.5 98.5zM188 678
q0 -50 34.5 -84.5t84.5 -34.5t84.5 34.5t34.5 84.5t-34.5 84.5t-84.5 34.5t-84.5 -34.5t-34.5 -84.5zM569 74v384q0 36 -20.5 58t-51.5 22q-30 0 -50 -19.5t-22 -52.5q-30 10 -65 10q-13 0 -30 -7q-26 -11 -28 -11q-1 0 -27 11q-18 7 -31 7q-98 0 -156 -74q-48 -63 -48 -141
q0 -67 35 -122.5t95 -81.5l5 -2q-1 -3 128 -62q120 52 124 59q13 -58 70 -58q31 0 51.5 22.5t20.5 57.5zM424 261q0 -49 -39 -66l-17 -7q-43 -19 -56 -54q-12 35 -56 54l-17 7q-17 7 -28 24.5t-11 41.5q0 28 15 46.5t39 18.5q45 0 58 -56v0q14 56 58 56q24 0 39 -18.5
t15 -46.5zM0 261q0 91 57 165q69 90 187 90q20 0 58 -16q38 16 58 16q18 0 36 -3q29 65 101 65q50 0 81 -34.5t31 -85.5v-384q0 -51 -31 -85.5t-81 -34.5q-56 0 -88 44q-101 -51 -110 -47l-72 30q-56 25 -70 38q-73 32 -115 96.5t-42 145.5zM20 261q0 -75 39 -135t108 -89
l3 -3q10 -10 133 -63q114 50 108 50q3 0 26.5 -23.5t59.5 -23.5q40 0 66 28.5t26 71.5v384q0 44 -26 72t-66 28q-34 0 -55 -17q-11 -10 -25 -33q-9 -17 -16 -16q-20 4 -41 4q-10 0 -34.5 -8.5t-26.5 -7.5q-39 16 -55 16q-108 0 -171 -82q-53 -68 -53 -153z" />
    <glyph glyph-name="ccedilla" unicode="&#xe7;" horiz-adv-x="542" 
d="M503 72q0 32 -22 52t-58 20h-170q-43 0 -69 29q-24 26 -24 64t25 65.5t68 27.5h170q36 0 58 20t22 52t-22 52t-58 20h-173q-97 0 -153.5 -62t-56.5 -175t56.5 -175t153.5 -62h15l-12 -17q-22 -31 -22 -40q0 -15 11 -20q3 -1 23 -3q34 0 34 -28q0 -30 -33 -28
q-10 0 -26.5 5t-21.5 5q-24 0 -24 -26q0 -50 90 -50q42 0 74 22q37 27 37 72q0 35 -21 55.5t-54 20.5q-3 0 -10.5 -1.5t-11.5 -1.5l27 35h98q36 0 58 20t22 52zM0 237q0 128 67.5 202.5t182.5 74.5h173q51 0 85.5 -31t34.5 -81t-34.5 -81t-85.5 -31h-170q-53 0 -53 -53
t53 -53h170q51 0 85.5 -31t34.5 -81t-34.5 -81t-85.5 -31h-8q20 -29 20 -68q0 -67 -54 -104q-43 -30 -97 -30q-43 0 -79 18q-51 24 -51 72t44 63q-7 13 -7 32q0 9 5 22q-92 17 -144 89t-52 183zM20 237q0 -109 51.5 -176t140.5 -79q9 -1 9 -8q0 -5 -5 -16.5t-5 -14.5
q0 -19 9 -29t9 -11t-27.5 -14t-27.5 -41q0 -35 39 -54q32 -16 71 -16q48 0 86 26q45 32 45 88q0 44 -28 71q-7 6 -4 11q2 6 10 6h30q43 0 71.5 25.5t28.5 66.5t-28.5 66.5t-71.5 25.5h-170q-34 0 -53.5 21t-19.5 52t19.5 52t53.5 21h170q43 0 71.5 25.5t28.5 66.5
t-28.5 66.5t-71.5 25.5h-173q-106 0 -168 -68.5t-62 -188.5z" />
    <glyph glyph-name="eacute" unicode="&#xe9;" horiz-adv-x="567" 
d="M464 178q79 -24 79 -106q0 -50 -34.5 -81t-85.5 -31h-173q-115 0 -182.5 74.5t-67.5 202.5t67.5 202.5t182.5 74.5h46q117 0 193 -62q78 -65 78 -170q0 -104 -103 -104v0zM211 198h253q83 0 83 84q0 96 -70.5 154t-180.5 58h-46q-106 0 -168 -68.5t-62 -188.5t62 -188.5
t168 -68.5h173q43 0 71.5 25.5t28.5 66.5t-28.5 66.5t-71.5 25.5h-170q-23 0 -38 9t-15 18q0 7 11 7zM527 282q0 178 -251 192h-26q-97 0 -153.5 -62t-56.5 -175t56.5 -175t153.5 -62h173q36 0 58 20t22 52t-22 52t-58 20h-170q-37 0 -61 21t-30 53h302q63 0 63 64zM339 266
q-15 -7 -29 -4l-14 2q-38 7 -61 -11q1 7 1 14q0 22 -16 46l-8 12q-8 12 -8 28q0 22 16 41t37 19q12 0 22 -6q19 -13 19 -38q0 -12 -4 -25v0q19 19 41 19q17 0 28.5 -12t11.5 -29q0 -39 -36 -56zM438 711q0 22 -16.5 42t-37.5 20q-14 0 -38 -10l-126 -52q-28 -14 -28 -40
q0 -27 15.5 -50t37.5 -23q14 0 40 10l112 44q41 16 41 59zM299 571q-32 -13 -54 -13q-44 0 -71 41q-22 34 -22 72q0 51 50 76l9 4q125 62 173 62q41 0 69 -36q25 -31 25 -66q0 -70 -67 -96zM292 589l112 44q54 21 54 78q0 28 -21.5 55t-52.5 27q-18 0 -46 -11l-119 -49
q-47 -19 -47 -62q0 -33 18 -61q22 -32 55 -32q18 0 47 11z" />
    <glyph glyph-name="egrave" unicode="&#xe8;" horiz-adv-x="566" 
d="M464 178q79 -24 79 -106q0 -50 -34.5 -81t-85.5 -31h-173q-115 0 -182.5 74.5t-67.5 202.5t67.5 202.5t182.5 74.5h46q117 0 193 -62q78 -65 78 -170q0 -104 -103 -104v0zM211 198h253q83 0 83 84q0 96 -70.5 154t-180.5 58h-46q-106 0 -168 -68.5t-62 -188.5t62 -188.5
t168 -68.5h173q43 0 71.5 25.5t28.5 66.5t-28.5 66.5t-71.5 25.5h-170q-23 0 -38 9t-15 18q0 7 11 7zM527 282q0 178 -251 192h-26q-97 0 -153.5 -62t-56.5 -175t56.5 -175t153.5 -62h173q36 0 58 20t22 52t-22 52t-58 20h-170q-37 0 -61 21t-30 53h302q63 0 63 64zM339 266
q-15 -7 -29 -4l-14 2q-38 7 -61 -11q1 7 1 14q0 22 -16 46l-8 12q-8 12 -8 28q0 22 16 41t37 19q12 0 22 -6q19 -13 19 -38q0 -12 -4 -25v0q19 19 41 19q17 0 28.5 -12t11.5 -29q0 -39 -36 -56zM444 660q0 26 -28 40l-8 4l-118 48q-25 10 -38 10q-21 0 -37.5 -20.5
t-16.5 -41.5q0 -43 41 -59l112 -44q25 -10 40 -10q22 0 37.5 22.5t15.5 50.5zM381 546q-14 0 -79 25q-60 22 -76 30q-68 36 -68 99q0 34 25 66q28 36 69 36q48 0 172 -62l10 -5q50 -24 50 -75q0 -39 -22 -73q-27 -40 -71 -40zM381 566l10 1q33 0 54 32q19 28 19 61
q0 38 -39 57l-8 5l-119 48q-29 12 -46 12q-31 0 -54 -29q-20 -25 -20 -53q0 -52 61 -83q52 -20 105 -39q29 -12 37 -12z" />
    <glyph glyph-name="ecircumflex" unicode="&#xea;" horiz-adv-x="566" 
d="M464 178q79 -24 79 -106q0 -50 -34.5 -81t-85.5 -31h-173q-115 0 -182.5 74.5t-67.5 202.5t67.5 202.5t182.5 74.5h46q117 0 193 -62q78 -65 78 -170q0 -104 -103 -104v0zM211 198h253q83 0 83 84q0 96 -70.5 154t-180.5 58h-46q-106 0 -168 -68.5t-62 -188.5t62 -188.5
t168 -68.5h173q43 0 71.5 25.5t28.5 66.5t-28.5 66.5t-71.5 25.5h-170q-23 0 -38 9t-15 18q0 7 11 7zM527 282q0 178 -251 192h-26q-97 0 -153.5 -62t-56.5 -175t56.5 -175t153.5 -62h173q36 0 58 20t22 52t-22 52t-58 20h-170q-37 0 -61 21t-30 53h302q63 0 63 64zM339 266
q-15 -7 -29 -4l-14 2q-38 7 -61 -11q1 7 1 14q0 22 -16 46l-8 12q-8 12 -8 28q0 22 16 41t37 19q12 0 22 -6q19 -13 19 -38q0 -12 -4 -25v0q19 19 41 19q17 0 28.5 -12t11.5 -29q0 -39 -36 -56zM441 660q0 42 -46 61l-106 43l-106 -43q-46 -19 -46 -61q0 -24 18.5 -44
t42.5 -20q11 0 52 18l39 17l39 -17q41 -18 52 -18q24 0 42.5 20t18.5 44zM289 587q-70 -31 -91 -31q-41 0 -71 32t-30 72q0 69 71 98l117 48h8l117 -48q71 -29 71 -98q0 -40 -30 -72t-71 -32q-21 0 -91 31zM380 576q33 0 57 26t24 58q0 56 -58 80l-114 46l-114 -46
q-58 -24 -58 -80q0 -32 24 -58t57 -26q13 0 52 16.5t43 14.5q72 -31 87 -31z" />
    <glyph glyph-name="edieresis" unicode="&#xeb;" horiz-adv-x="566" 
d="M464 178q79 -24 79 -106q0 -50 -34.5 -81t-85.5 -31h-173q-115 0 -182.5 74.5t-67.5 202.5t67.5 202.5t182.5 74.5h46q117 0 193 -62q78 -65 78 -170q0 -104 -103 -104v0zM211 198h253q83 0 83 84q0 96 -70.5 154t-180.5 58h-46q-106 0 -168 -68.5t-62 -188.5t62 -188.5
t168 -68.5h173q43 0 71.5 25.5t28.5 66.5t-28.5 66.5t-71.5 25.5h-170q-23 0 -38 9t-15 18q0 7 11 7zM527 282q0 178 -251 192h-26q-97 0 -153.5 -62t-56.5 -175t56.5 -175t153.5 -62h173q36 0 58 20t22 52t-22 52t-58 20h-170q-37 0 -61 21t-30 53h302q63 0 63 64zM339 266
q-15 -7 -29 -4l-14 2q-38 7 -61 -11q1 7 1 14q0 22 -16 46l-8 12q-8 12 -8 28q0 22 16 41t37 19q12 0 22 -6q19 -13 19 -38q0 -12 -4 -25v0q19 19 41 19q17 0 28.5 -12t11.5 -29q0 -39 -36 -56zM398 675q0 -38 27 -65t65 -27t65 27t27 65t-27 65t-65 27t-65 -27t-27 -65z
M158 675q0 47 32.5 79.5t79.5 32.5q41 0 72 -26t38 -65q7 39 38 65t72 26q47 0 79.5 -32.5t32.5 -79.5t-32.5 -79.5t-79.5 -32.5q-41 0 -72 26t-38 65q-7 -39 -38 -65t-72 -26q-47 0 -79.5 32.5t-32.5 79.5zM178 675q0 -38 27 -65t65 -27t65 27t27 65t-27 65t-65 27t-65 -27
t-27 -65zM562 675q0 30 -21 51t-51 21t-51 -21t-21 -51t21 -51t51 -21t51 21t21 51zM342 675q0 30 -21 51t-51 21t-51 -21t-21 -51t21 -51t51 -21t51 21t21 51z" />
    <glyph glyph-name="iacute" unicode="&#xed;" horiz-adv-x="258" 
d="M280 711q0 22 -16.5 42t-37.5 20q-14 0 -38 -10l-126 -52q-28 -14 -28 -40q0 -27 15.5 -50t37.5 -23q14 0 40 10l112 44q41 16 41 59zM141 571q-32 -13 -54 -13q-44 0 -71 41q-22 34 -22 72q0 51 50 76l9 4q125 62 173 62q41 0 69 -36q25 -31 25 -66q0 -70 -67 -96z
M134 589l112 44q54 21 54 78q0 28 -21.5 55t-52.5 27q-18 0 -46 -11l-119 -49q-47 -19 -47 -62q0 -33 18 -61q22 -32 55 -32q18 0 47 11zM190 79v237q0 37 -21 57.5t-54 20.5q-34 0 -54.5 -20.5t-20.5 -57.5v-237q0 -37 20.5 -57.5t54.5 -20.5q33 0 54 20.5t21 57.5zM0 79
v237q0 53 32.5 85.5t82.5 32.5q49 0 82 -32.5t33 -85.5v-237q0 -54 -33 -86t-82 -32q-50 0 -82.5 32t-32.5 86zM20 79q0 -45 26.5 -71.5t68.5 -26.5q41 0 68 26.5t27 71.5v237q0 45 -27 71.5t-68 26.5q-42 0 -68.5 -26.5t-26.5 -71.5v-237z" />
    <glyph glyph-name="igrave" unicode="&#xec;" horiz-adv-x="309" 
d="M286 660q0 26 -28 40l-8 4l-118 48q-25 10 -38 10q-21 0 -37.5 -20.5t-16.5 -41.5q0 -43 41 -59l112 -44q25 -10 40 -10q22 0 37.5 22.5t15.5 50.5zM223 546q-14 0 -79 25q-60 22 -76 30q-68 36 -68 99q0 34 25 66q28 36 69 36q48 0 172 -62l10 -5q50 -24 50 -75
q0 -39 -22 -73q-27 -40 -71 -40zM223 566l10 1q33 0 54 32q19 28 19 61q0 38 -39 57l-8 5l-119 48q-29 12 -46 12q-31 0 -54 -29q-20 -25 -20 -53q0 -52 61 -83q52 -20 105 -39q29 -12 37 -12zM210 79v237q0 37 -21 57.5t-54 20.5q-34 0 -54.5 -20.5t-20.5 -57.5v-237
q0 -37 20.5 -57.5t54.5 -20.5q33 0 54 20.5t21 57.5zM20 79v237q0 53 32.5 85.5t82.5 32.5q49 0 82 -32.5t33 -85.5v-237q0 -54 -33 -86t-82 -32q-50 0 -82.5 32t-32.5 86zM40 79q0 -45 26.5 -71.5t68.5 -26.5q41 0 68 26.5t27 71.5v237q0 45 -27 71.5t-68 26.5
q-42 0 -68.5 -26.5t-26.5 -71.5v-237z" />
    <glyph glyph-name="icircumflex" unicode="&#xee;" horiz-adv-x="366" 
d="M343 660q0 42 -46 61l-106 43l-106 -43q-46 -19 -46 -61q0 -24 18.5 -44t42.5 -20q11 0 52 18l39 17l39 -17q41 -18 52 -18q24 0 42.5 20t18.5 44zM191 587q-70 -31 -91 -31q-41 0 -71 32t-30 72q0 69 71 98l117 48h8l117 -48q71 -29 71 -98q0 -40 -30 -72t-71 -32
q-21 0 -91 31zM282 576q33 0 57 26t24 58q0 56 -58 80l-114 46l-114 -46q-58 -24 -58 -80q0 -32 24 -58t57 -26q13 0 52 16.5t43 14.5q72 -31 87 -31zM270 79v237q0 37 -21 57.5t-54 20.5q-34 0 -54.5 -20.5t-20.5 -57.5v-237q0 -37 20.5 -57.5t54.5 -20.5q33 0 54 20.5
t21 57.5zM80 79v237q0 53 32.5 85.5t82.5 32.5q49 0 82 -32.5t33 -85.5v-237q0 -54 -33 -86t-82 -32q-50 0 -82.5 32t-32.5 86zM100 79q0 -45 26.5 -71.5t68.5 -26.5q41 0 68 26.5t27 71.5v237q0 45 -27 71.5t-68 26.5q-42 0 -68.5 -26.5t-26.5 -71.5v-237z" />
    <glyph glyph-name="idieresis" unicode="&#xef;" horiz-adv-x="426" 
d="M350 675q0 -38 27 -65t65 -27t65 27t27 65t-27 65t-65 27t-65 -27t-27 -65zM110 675q0 47 32.5 79.5t79.5 32.5q41 0 72 -26t38 -65q7 39 38 65t72 26q47 0 79.5 -32.5t32.5 -79.5t-32.5 -79.5t-79.5 -32.5q-41 0 -72 26t-38 65q-7 -39 -38 -65t-72 -26q-47 0 -79.5 32.5
t-32.5 79.5zM130 675q0 -38 27 -65t65 -27t65 27t27 65t-27 65t-65 27t-65 -27t-27 -65zM514 675q0 30 -21 51t-51 21t-51 -21t-21 -51t21 -51t51 -21t51 21t21 51zM294 675q0 30 -21 51t-51 21t-51 -21t-21 -51t21 -51t51 -21t51 21t21 51zM300 79v237q0 37 -21 57.5
t-54 20.5q-34 0 -54.5 -20.5t-20.5 -57.5v-237q0 -37 20.5 -57.5t54.5 -20.5q33 0 54 20.5t21 57.5zM110 79v237q0 53 32.5 85.5t82.5 32.5q49 0 82 -32.5t33 -85.5v-237q0 -54 -33 -86t-82 -32q-50 0 -82.5 32t-32.5 86zM130 79q0 -45 26.5 -71.5t68.5 -26.5q41 0 68 26.5
t27 71.5v237q0 45 -27 71.5t-68 26.5q-42 0 -68.5 -26.5t-26.5 -71.5v-237z" />
    <glyph glyph-name="ntilde" unicode="&#xf1;" horiz-adv-x="552" 
d="M514 80v226q0 90 -55.5 142t-141.5 52q-97 0 -139 -59v50q-8 53 -66 53q-32 0 -52 -22t-20 -58v-384q0 -36 20 -58t52 -22q31 0 51.5 22t20.5 58v201q0 43 24.5 71t67.5 28q41 0 66 -24q28 -27 28 -75v-201q0 -36 20 -58t52 -22q31 0 51.5 22t20.5 58zM317 540
q102 0 168 -62q69 -65 69 -172v-226q0 -51 -31.5 -85.5t-80.5 -34.5q-50 0 -81 34.5t-31 85.5v201q0 59 -54 59q-52 0 -52 -59v-201q0 -51 -31.5 -85.5t-80.5 -34.5q-50 0 -81 34.5t-31 85.5v384q0 51 31 85.5t81 34.5q75 0 99 -64q44 20 106 20zM317 520q-65 0 -107 -23
q-11 -7 -14 6q-17 61 -84 61q-41 0 -66.5 -28.5t-25.5 -71.5v-384q0 -43 25.5 -71.5t66.5 -28.5q40 0 66 28.5t26 71.5v201q0 79 72 79q74 0 74 -79v-201q0 -43 25.5 -71.5t66.5 -28.5q40 0 66 28.5t26 71.5v226q0 98 -61.5 156t-155.5 58zM472 710q0 23 -12.5 39.5
t-34.5 16.5q-14 0 -41.5 -14.5t-36.5 -14.5t-47.5 12.5t-64.5 12.5q-40 0 -67.5 -24t-27.5 -64q0 -19 15.5 -35.5t34.5 -16.5q18 0 39 13t32 13q10 0 52.5 -12.5t60.5 -12.5q37 0 67.5 25.5t30.5 61.5zM310 596q-38 12 -49 12q-15 -9 -31.5 -17.5t-39.5 -8.5q-36 0 -63 28.5
t-27 63.5q0 59 42 95q38 33 93 33q20 0 94 -21q12 -4 18 -4q19 9 37 19q22 10 41 10q43 0 67 -34q20 -27 20 -62q0 -56 -46 -93q-41 -34 -92 -34q-22 0 -64 13zM374 603q44 0 79 29q39 32 39 78q0 29 -16 51q-19 25 -51 25q-17 0 -45.5 -14.5t-32.5 -14.5q-14 0 -52 12.5
t-60 12.5q-48 0 -80 -28q-35 -31 -35 -80q0 -27 21.5 -49.5t48.5 -22.5q21 0 43.5 13t27.5 13q14 0 54 -12.5t59 -12.5z" />
    <glyph glyph-name="oacute" unicode="&#xf3;" horiz-adv-x="603" 
d="M564 261q0 79 -49 141q-58 73 -155 73q-13 0 -30 -7q-26 -10 -28 -10q-1 0 -27 10q-18 7 -31 7q-98 0 -156 -74q-48 -62 -48 -141q0 -66 35 -122t95 -81l5 -2q-1 -4 128 -62q118 51 124 59l7 5q130 82 130 204zM424 261q0 -50 -39 -66l-17 -8q-43 -18 -56 -53
q-12 34 -56 53l-17 8q-17 7 -28 24.5t-11 40.5q0 29 15 47t39 18q45 0 58 -55v0q14 55 58 55q24 0 39 -18t15 -46zM0 260q0 92 57 166q69 89 187 89q20 0 58 -15q38 15 58 15q117 0 186 -88q58 -74 58 -166q0 -141 -154 -241q-7 -12 -39 -26q-27 -11 -104 -43q-8 -3 -109 43
q-30 14 -41 25q-73 32 -115 96.5t-42 144.5zM20 260q0 -75 39 -134.5t108 -89.5l3 -2q10 -11 133 -63q33 13 67 27q59 25 65 34l3 3q146 93 146 226q0 86 -53 154q-64 80 -171 80q-10 0 -34.5 -8t-26.5 -7q-39 15 -55 15q-108 0 -171 -81q-53 -68 -53 -154zM497 711
q0 22 -16.5 42t-37.5 20q-14 0 -38 -10l-126 -52q-28 -14 -28 -40q0 -27 15.5 -50t37.5 -23q14 0 40 10l112 44q41 16 41 59zM358 571q-32 -13 -54 -13q-44 0 -71 41q-22 34 -22 72q0 51 50 76l9 4q125 62 173 62q41 0 69 -36q25 -31 25 -66q0 -70 -67 -96zM351 589l112 44
q54 21 54 78q0 28 -21.5 55t-52.5 27q-18 0 -46 -11l-119 -49q-47 -19 -47 -62q0 -33 18 -61q22 -32 55 -32q18 0 47 11z" />
    <glyph glyph-name="ograve" unicode="&#xf2;" horiz-adv-x="603" 
d="M564 261q0 79 -49 141q-58 73 -155 73q-13 0 -30 -7q-26 -10 -28 -10q-1 0 -27 10q-18 7 -31 7q-98 0 -156 -74q-48 -62 -48 -141q0 -66 35 -122t95 -81l5 -2q-1 -4 128 -62q118 51 124 59l7 5q130 82 130 204zM424 261q0 -50 -39 -66l-17 -8q-43 -18 -56 -53
q-12 34 -56 53l-17 8q-17 7 -28 24.5t-11 40.5q0 29 15 47t39 18q45 0 58 -55v0q14 55 58 55q24 0 39 -18t15 -46zM0 260q0 92 57 166q69 89 187 89q20 0 58 -15q38 15 58 15q117 0 186 -88q58 -74 58 -166q0 -141 -154 -241q-7 -12 -39 -26q-27 -11 -104 -43q-8 -3 -109 43
q-30 14 -41 25q-73 32 -115 96.5t-42 144.5zM20 260q0 -75 39 -134.5t108 -89.5l3 -2q10 -11 133 -63q33 13 67 27q59 25 65 34l3 3q146 93 146 226q0 86 -53 154q-64 80 -171 80q-10 0 -34.5 -8t-26.5 -7q-39 15 -55 15q-108 0 -171 -81q-53 -68 -53 -154zM453 660
q0 26 -28 40l-8 4l-118 48q-25 10 -38 10q-21 0 -37.5 -20.5t-16.5 -41.5q0 -43 41 -59l112 -44q25 -10 40 -10q22 0 37.5 22.5t15.5 50.5zM390 546q-14 0 -79 25q-60 22 -76 30q-68 36 -68 99q0 34 25 66q28 36 69 36q48 0 172 -62l10 -5q50 -24 50 -75q0 -39 -22 -73
q-27 -40 -71 -40zM390 566l10 1q33 0 54 32q19 28 19 61q0 38 -39 57l-8 5l-119 48q-29 12 -46 12q-31 0 -54 -29q-20 -25 -20 -53q0 -52 61 -83q52 -20 105 -39q29 -12 37 -12z" />
    <glyph glyph-name="ocircumflex" unicode="&#xf4;" horiz-adv-x="603" 
d="M564 261q0 79 -49 141q-58 73 -155 73q-13 0 -30 -7q-26 -10 -28 -10q-1 0 -27 10q-18 7 -31 7q-98 0 -156 -74q-48 -62 -48 -141q0 -66 35 -122t95 -81l5 -2q-1 -4 128 -62q118 51 124 59l7 5q130 82 130 204zM424 261q0 -50 -39 -66l-17 -8q-43 -18 -56 -53
q-12 34 -56 53l-17 8q-17 7 -28 24.5t-11 40.5q0 29 15 47t39 18q45 0 58 -55v0q14 55 58 55q24 0 39 -18t15 -46zM0 260q0 92 57 166q69 89 187 89q20 0 58 -15q38 15 58 15q117 0 186 -88q58 -74 58 -166q0 -141 -154 -241q-7 -12 -39 -26q-27 -11 -104 -43q-8 -3 -109 43
q-30 14 -41 25q-73 32 -115 96.5t-42 144.5zM20 260q0 -75 39 -134.5t108 -89.5l3 -2q10 -11 133 -63q33 13 67 27q59 25 65 34l3 3q146 93 146 226q0 86 -53 154q-64 80 -171 80q-10 0 -34.5 -8t-26.5 -7q-39 15 -55 15q-108 0 -171 -81q-53 -68 -53 -154zM460 660
q0 42 -46 61l-106 43l-106 -43q-46 -19 -46 -61q0 -24 18.5 -44t42.5 -20q11 0 52 18l39 17l39 -17q41 -18 52 -18q24 0 42.5 20t18.5 44zM308 587q-70 -31 -91 -31q-41 0 -71 32t-30 72q0 69 71 98l117 48h8l117 -48q71 -29 71 -98q0 -40 -30 -72t-71 -32q-21 0 -91 31z
M399 576q33 0 57 26t24 58q0 56 -58 80l-114 46l-114 -46q-58 -24 -58 -80q0 -32 24 -58t57 -26q13 0 52 16.5t43 14.5q72 -31 87 -31z" />
    <glyph glyph-name="odieresis" unicode="&#xf6;" horiz-adv-x="602" 
d="M564 261q0 79 -49 141q-58 73 -155 73q-13 0 -30 -7q-26 -10 -28 -10q-1 0 -27 10q-18 7 -31 7q-98 0 -156 -74q-48 -62 -48 -141q0 -66 35 -122t95 -81l5 -2q-1 -4 128 -62q118 51 124 59l7 5q130 82 130 204zM424 261q0 -50 -39 -66l-17 -8q-43 -18 -56 -53
q-12 34 -56 53l-17 8q-17 7 -28 24.5t-11 40.5q0 29 15 47t39 18q45 0 58 -55v0q14 55 58 55q24 0 39 -18t15 -46zM0 260q0 92 57 166q69 89 187 89q20 0 58 -15q38 15 58 15q117 0 186 -88q58 -74 58 -166q0 -141 -154 -241q-7 -12 -39 -26q-27 -11 -104 -43q-8 -3 -109 43
q-30 14 -41 25q-73 32 -115 96.5t-42 144.5zM20 260q0 -75 39 -134.5t108 -89.5l3 -2q10 -11 133 -63q33 13 67 27q59 25 65 34l3 3q146 93 146 226q0 86 -53 154q-64 80 -171 80q-10 0 -34.5 -8t-26.5 -7q-39 15 -55 15q-108 0 -171 -81q-53 -68 -53 -154zM440 668
q0 -38 27 -65t65 -27t65 27t27 65t-27 65t-65 27t-65 -27t-27 -65zM200 668q0 47 32.5 79.5t79.5 32.5q41 0 72 -26t38 -65q7 39 38 65t72 26q47 0 79.5 -32.5t32.5 -79.5t-32.5 -79.5t-79.5 -32.5q-41 0 -72 26t-38 65q-7 -39 -38 -65t-72 -26q-47 0 -79.5 32.5t-32.5 79.5
zM220 668q0 -38 27 -65t65 -27t65 27t27 65t-27 65t-65 27t-65 -27t-27 -65zM604 668q0 30 -21 51t-51 21t-51 -21t-21 -51t21 -51t51 -21t51 21t21 51zM384 668q0 30 -21 51t-51 21t-51 -21t-21 -51t21 -51t51 -21t51 21t21 51z" />
    <glyph glyph-name="otilde" unicode="&#xf5;" horiz-adv-x="602" 
d="M564 261q0 79 -49 141q-58 73 -155 73q-13 0 -30 -7q-26 -10 -28 -10q-1 0 -27 10q-18 7 -31 7q-98 0 -156 -74q-48 -62 -48 -141q0 -66 35 -122t95 -81l5 -2q-1 -4 128 -62q118 51 124 59l7 5q130 82 130 204zM424 261q0 -50 -39 -66l-17 -8q-43 -18 -56 -53
q-12 34 -56 53l-17 8q-17 7 -28 24.5t-11 40.5q0 29 15 47t39 18q45 0 58 -55v0q14 55 58 55q24 0 39 -18t15 -46zM0 260q0 92 57 166q69 89 187 89q20 0 58 -15q38 15 58 15q117 0 186 -88q58 -74 58 -166q0 -141 -154 -241q-7 -12 -39 -26q-27 -11 -104 -43q-8 -3 -109 43
q-30 14 -41 25q-73 32 -115 96.5t-42 144.5zM20 260q0 -75 39 -134.5t108 -89.5l3 -2q10 -11 133 -63q33 13 67 27q59 25 65 34l3 3q146 93 146 226q0 86 -53 154q-64 80 -171 80q-10 0 -34.5 -8t-26.5 -7q-39 15 -55 15q-108 0 -171 -81q-53 -68 -53 -154zM484 693
q0 23 -12.5 39.5t-34.5 16.5q-14 0 -41.5 -14.5t-36.5 -14.5t-47.5 12.5t-64.5 12.5q-40 0 -67.5 -24t-27.5 -64q0 -19 15.5 -35.5t34.5 -16.5q18 0 39 13t32 13q10 0 52.5 -12.5t60.5 -12.5q37 0 67.5 25.5t30.5 61.5zM322 579q-38 12 -49 12q-15 -9 -31.5 -17.5
t-39.5 -8.5q-36 0 -63 28.5t-27 63.5q0 59 42 95q38 33 93 33q20 0 94 -21q12 -4 18 -4q19 9 37 19q22 10 41 10q43 0 67 -34q20 -27 20 -62q0 -56 -46 -93q-41 -34 -92 -34q-22 0 -64 13zM386 586q44 0 79 29q39 32 39 78q0 29 -16 51q-19 25 -51 25q-17 0 -45.5 -14.5
t-32.5 -14.5q-14 0 -52 12.5t-60 12.5q-48 0 -80 -28q-35 -31 -35 -80q0 -27 21.5 -49.5t48.5 -22.5q21 0 43.5 13t27.5 13q14 0 54 -12.5t59 -12.5z" />
    <glyph glyph-name="uacute" unicode="&#xfa;" horiz-adv-x="554" 
d="M40 396v-158q0 -90 55 -142t142 -52q96 0 139 59v-50q8 -53 66 -53q31 0 51.5 22t20.5 58v316q0 35 -20.5 57.5t-51.5 22.5q-32 0 -52 -22.5t-20 -57.5v-133q0 -43 -24.5 -71t-67.5 -28q-42 0 -68 25.5t-26 73.5v133q0 35 -20.5 57.5t-51.5 22.5q-32 0 -52 -22.5
t-20 -57.5zM237 4q-103 0 -170 63.5t-67 170.5v158q0 51 31 85.5t81 34.5q49 0 80.5 -34.5t31.5 -85.5v-133q0 -59 54 -59q52 0 52 59v133q0 51 31 85.5t81 34.5q49 0 80.5 -34.5t31.5 -85.5v-316q0 -51 -31.5 -85.5t-80.5 -34.5q-75 0 -100 64q-43 -20 -105 -20zM237 24
q64 0 106 23q12 7 15 -6q16 -61 84 -61q40 0 66 28.5t26 71.5v316q0 43 -26 71.5t-66 28.5q-41 0 -66.5 -28.5t-25.5 -71.5v-133q0 -79 -72 -79q-74 0 -74 79v133q0 43 -26 71.5t-66 28.5q-41 0 -66.5 -28.5t-25.5 -71.5v-158q0 -98 61 -156t156 -58zM447 711q0 22 -16.5 42
t-37.5 20q-14 0 -38 -10l-126 -52q-28 -14 -28 -40q0 -27 15.5 -50t37.5 -23q14 0 40 10l112 44q41 16 41 59zM308 571q-32 -13 -54 -13q-44 0 -71 41q-22 34 -22 72q0 51 50 76l9 4q125 62 173 62q41 0 69 -36q25 -31 25 -66q0 -70 -67 -96zM301 589l112 44q54 21 54 78
q0 28 -21.5 55t-52.5 27q-18 0 -46 -11l-119 -49q-47 -19 -47 -62q0 -33 18 -61q22 -32 55 -32q18 0 47 11z" />
    <glyph glyph-name="ugrave" unicode="&#xf9;" horiz-adv-x="554" 
d="M40 396v-158q0 -90 55 -142t142 -52q96 0 139 59v-50q8 -53 66 -53q31 0 51.5 22t20.5 58v316q0 35 -20.5 57.5t-51.5 22.5q-32 0 -52 -22.5t-20 -57.5v-133q0 -43 -24.5 -71t-67.5 -28q-42 0 -68 25.5t-26 73.5v133q0 35 -20.5 57.5t-51.5 22.5q-32 0 -52 -22.5
t-20 -57.5zM237 4q-103 0 -170 63.5t-67 170.5v158q0 51 31 85.5t81 34.5q49 0 80.5 -34.5t31.5 -85.5v-133q0 -59 54 -59q52 0 52 59v133q0 51 31 85.5t81 34.5q49 0 80.5 -34.5t31.5 -85.5v-316q0 -51 -31.5 -85.5t-80.5 -34.5q-75 0 -100 64q-43 -20 -105 -20zM237 24
q64 0 106 23q12 7 15 -6q16 -61 84 -61q40 0 66 28.5t26 71.5v316q0 43 -26 71.5t-66 28.5q-41 0 -66.5 -28.5t-25.5 -71.5v-133q0 -79 -72 -79q-74 0 -74 79v133q0 43 -26 71.5t-66 28.5q-41 0 -66.5 -28.5t-25.5 -71.5v-158q0 -98 61 -156t156 -58zM453 660q0 26 -28 40
l-8 4l-118 48q-25 10 -38 10q-21 0 -37.5 -20.5t-16.5 -41.5q0 -43 41 -59l112 -44q25 -10 40 -10q22 0 37.5 22.5t15.5 50.5zM390 546q-14 0 -79 25q-60 22 -76 30q-68 36 -68 99q0 34 25 66q28 36 69 36q48 0 172 -62l10 -5q50 -24 50 -75q0 -39 -22 -73q-27 -40 -71 -40z
M390 566l10 1q33 0 54 32q19 28 19 61q0 38 -39 57l-8 5l-119 48q-29 12 -46 12q-31 0 -54 -29q-20 -25 -20 -53q0 -52 61 -83q52 -20 105 -39q29 -12 37 -12z" />
    <glyph glyph-name="ucircumflex" unicode="&#xfb;" horiz-adv-x="554" 
d="M40 396v-158q0 -90 55 -142t142 -52q96 0 139 59v-50q8 -53 66 -53q31 0 51.5 22t20.5 58v316q0 35 -20.5 57.5t-51.5 22.5q-32 0 -52 -22.5t-20 -57.5v-133q0 -43 -24.5 -71t-67.5 -28q-42 0 -68 25.5t-26 73.5v133q0 35 -20.5 57.5t-51.5 22.5q-32 0 -52 -22.5
t-20 -57.5zM237 4q-103 0 -170 63.5t-67 170.5v158q0 51 31 85.5t81 34.5q49 0 80.5 -34.5t31.5 -85.5v-133q0 -59 54 -59q52 0 52 59v133q0 51 31 85.5t81 34.5q49 0 80.5 -34.5t31.5 -85.5v-316q0 -51 -31.5 -85.5t-80.5 -34.5q-75 0 -100 64q-43 -20 -105 -20zM237 24
q64 0 106 23q12 7 15 -6q16 -61 84 -61q40 0 66 28.5t26 71.5v316q0 43 -26 71.5t-66 28.5q-41 0 -66.5 -28.5t-25.5 -71.5v-133q0 -79 -72 -79q-74 0 -74 79v133q0 43 -26 71.5t-66 28.5q-41 0 -66.5 -28.5t-25.5 -71.5v-158q0 -98 61 -156t156 -58zM440 660q0 42 -46 61
l-106 43l-106 -43q-46 -19 -46 -61q0 -24 18.5 -44t42.5 -20q11 0 52 18l39 17l39 -17q41 -18 52 -18q24 0 42.5 20t18.5 44zM288 587q-70 -31 -91 -31q-41 0 -71 32t-30 72q0 69 71 98l117 48h8l117 -48q71 -29 71 -98q0 -40 -30 -72t-71 -32q-21 0 -91 31zM379 576
q33 0 57 26t24 58q0 56 -58 80l-114 46l-114 -46q-58 -24 -58 -80q0 -32 24 -58t57 -26q13 0 52 16.5t43 14.5q72 -31 87 -31z" />
    <glyph glyph-name="udieresis" unicode="&#xfc;" horiz-adv-x="554" 
d="M40 396v-158q0 -90 55 -142t142 -52q96 0 139 59v-50q8 -53 66 -53q31 0 51.5 22t20.5 58v316q0 35 -20.5 57.5t-51.5 22.5q-32 0 -52 -22.5t-20 -57.5v-133q0 -43 -24.5 -71t-67.5 -28q-42 0 -68 25.5t-26 73.5v133q0 35 -20.5 57.5t-51.5 22.5q-32 0 -52 -22.5
t-20 -57.5zM237 4q-103 0 -170 63.5t-67 170.5v158q0 51 31 85.5t81 34.5q49 0 80.5 -34.5t31.5 -85.5v-133q0 -59 54 -59q52 0 52 59v133q0 51 31 85.5t81 34.5q49 0 80.5 -34.5t31.5 -85.5v-316q0 -51 -31.5 -85.5t-80.5 -34.5q-75 0 -100 64q-43 -20 -105 -20zM237 24
q64 0 106 23q12 7 15 -6q16 -61 84 -61q40 0 66 28.5t26 71.5v316q0 43 -26 71.5t-66 28.5q-41 0 -66.5 -28.5t-25.5 -71.5v-133q0 -79 -72 -79q-74 0 -74 79v133q0 43 -26 71.5t-66 28.5q-41 0 -66.5 -28.5t-25.5 -71.5v-158q0 -98 61 -156t156 -58zM407 675q0 -38 27 -65
t65 -27t65 27t27 65t-27 65t-65 27t-65 -27t-27 -65zM167 675q0 47 32.5 79.5t79.5 32.5q41 0 72 -26t38 -65q7 39 38 65t72 26q47 0 79.5 -32.5t32.5 -79.5t-32.5 -79.5t-79.5 -32.5q-41 0 -72 26t-38 65q-7 -39 -38 -65t-72 -26q-47 0 -79.5 32.5t-32.5 79.5zM187 675
q0 -38 27 -65t65 -27t65 27t27 65t-27 65t-65 27t-65 -27t-27 -65zM571 675q0 30 -21 51t-51 21t-51 -21t-21 -51t21 -51t51 -21t51 21t21 51zM351 675q0 30 -21 51t-51 21t-51 -21t-21 -51t21 -51t51 -21t51 21t21 51z" />
    <glyph glyph-name="degree" unicode="&#xb0;" 
 />
    <glyph glyph-name="registered" unicode="&#xae;" 
 />
    <glyph glyph-name="copyright" unicode="&#xa9;" 
 />
    <glyph glyph-name="trademark" unicode="&#x2122;" 
 />
    <glyph glyph-name="plusminus" unicode="&#xb1;" 
 />
    <glyph glyph-name="mu" unicode="&#xb5;" 
 />
    <glyph glyph-name="mu" unicode="&#x3bc;" 
 />
    <glyph glyph-name="logicalnot" unicode="&#xac;" 
 />
    <glyph glyph-name="nonbreakingspace" unicode="&#xa0;" 
 />
    <glyph glyph-name="Agrave" unicode="&#xc0;" 
 />
    <glyph glyph-name="Atilde" unicode="&#xc3;" 
 />
    <glyph glyph-name="Otilde" unicode="&#xd5;" 
 />
    <glyph glyph-name="divide" unicode="&#xf7;" 
 />
    <glyph glyph-name="ydieresis" unicode="&#xff;" horiz-adv-x="484" 
d="M444 -106v502q0 36 -20 58t-52 22t-52 -22t-20 -58v-252h-116v252q0 36 -20 58t-52 22t-52 -22t-20 -58v-316q0 -36 20 -58t52 -22h188v-91q0 -35 -15 -46q-9 -7 -33 -7q-59 0 -59 -61q0 -65 100 -65q68 0 109.5 43t41.5 121zM153 -205q0 101 99 101h5l1 1q2 3 2 12v49
q-13 0 -41 -1h-45q-79 0 -119 20q-55 29 -55 103v316q0 51 31 85.5t81 34.5t81 -34.5t31 -85.5v-212h36v212q0 51 31 85.5t81 34.5t81 -34.5t31 -85.5v-502q0 -94 -53 -149t-138 -55q-52 0 -88 18q-52 27 -52 87zM173 -205q0 -85 120 -85q76 0 123.5 49t47.5 135v502
q0 43 -25.5 71.5t-66.5 28.5t-66.5 -28.5t-25.5 -71.5v-222q0 -10 -10 -10h-56q-10 0 -10 10v222q0 43 -25.5 71.5t-66.5 28.5t-66.5 -28.5t-25.5 -71.5v-316q0 -103 139 -103q18 0 48 1.5t40 1.5q33 0 33 -12v-59q0 -33 -28 -33q-79 0 -79 -81zM261 675q0 -38 27 -65
t65 -27t65 27t27 65t-27 65t-65 27t-65 -27t-27 -65zM21 675q0 47 32.5 79.5t79.5 32.5q41 0 72 -26t38 -65q7 39 38 65t72 26q47 0 79.5 -32.5t32.5 -79.5t-32.5 -79.5t-79.5 -32.5q-41 0 -72 26t-38 65q-7 -39 -38 -65t-72 -26q-47 0 -79.5 32.5t-32.5 79.5zM41 675
q0 -38 27 -65t65 -27t65 27t27 65t-27 65t-65 27t-65 -27t-27 -65zM425 675q0 30 -21 51t-51 21t-51 -21t-21 -51t21 -51t51 -21t51 21t21 51zM205 675q0 30 -21 51t-51 21t-51 -21t-21 -51t21 -51t51 -21t51 21t21 51z" />
    <glyph glyph-name="Ydieresis" unicode="&#x178;" horiz-adv-x="483" 
d="M443 164v468q0 36 -20.5 58t-51.5 22q-32 0 -52 -22t-20 -58v-218h-116v218q0 36 -20.5 58t-51.5 22q-32 0 -52 -22t-20 -58v-282q0 -36 20 -58t52 -22h188v-91q0 -35 -15 -46q-9 -7 -33 -7q-59 0 -59 -61q0 -65 100 -65q67 0 109 43t42 121zM152 65q0 101 99 101h5l1 1
q2 3 2 12v49q-13 0 -41 -1h-45q-79 0 -119 20q-55 29 -55 103v282q0 51 31 85.5t81 34.5q49 0 80.5 -34.5t31.5 -85.5v-178h36v178q0 51 31 85.5t81 34.5q49 0 80.5 -34.5t31.5 -85.5v-468q0 -94 -53 -149t-138 -55q-52 0 -88 18q-52 27 -52 87zM172 65q0 -85 120 -85
q76 0 123.5 49t47.5 135v468q0 43 -26 71.5t-66 28.5q-41 0 -66.5 -28.5t-25.5 -71.5v-188q0 -10 -10 -10h-56q-10 0 -10 10v188q0 43 -26 71.5t-66 28.5q-41 0 -66.5 -28.5t-25.5 -71.5v-282q0 -103 138 -103q18 0 48.5 1.5t40.5 1.5q33 0 33 -12v-59q0 -33 -28 -33
q-79 0 -79 -81zM267 847q0 -38 27 -65t65 -27t65 27t27 65t-27 65t-65 27t-65 -27t-27 -65zM27 847q0 47 32.5 79.5t79.5 32.5q41 0 72 -26t38 -65q7 39 38 65t72 26q47 0 79.5 -32.5t32.5 -79.5t-32.5 -79.5t-79.5 -32.5q-41 0 -72 26t-38 65q-7 -39 -38 -65t-72 -26
q-47 0 -79.5 32.5t-32.5 79.5zM47 847q0 -38 27 -65t65 -27t65 27t27 65t-27 65t-65 27t-65 -27t-27 -65zM431 847q0 30 -21 51t-51 21t-51 -21t-21 -51t21 -51t51 -21t51 21t21 51zM211 847q0 30 -21 51t-51 21t-51 -21t-21 -51t21 -51t51 -21t51 21t21 51z" />
    <glyph glyph-name="Acircumflex" unicode="&#xc2;" horiz-adv-x="597" 
d="M556 78v556q0 37 -20.5 57.5t-54.5 20.5h-195q-68 0 -108 -42q-43 -44 -43 -122v-200h-32q-27 0 -45 -18t-18 -45q0 -63 63 -63h32v-142q0 -36 20 -58t52 -22t52 22t20 58v142h127v-144q0 -37 21 -57.5t54 -20.5q34 0 54.5 20.5t20.5 57.5zM366 78v104h-47v-102
q0 -51 -31 -85.5t-81 -34.5t-81 34.5t-31 85.5v102q-42 4 -68.5 32t-26.5 71q0 41 26.5 70t66.5 33l2 160q1 94 53.5 149t137.5 55h195q50 0 82.5 -32.5t32.5 -85.5v-556q0 -53 -32.5 -85.5t-82.5 -32.5q-49 0 -82 32.5t-33 85.5zM386 78q0 -45 27 -71.5t68 -26.5
q42 0 68.5 26.5t26.5 71.5v556q0 45 -26.5 71.5t-68.5 26.5h-195q-92 0 -134 -63q-32 -49 -38 -142q-1 -75 -1 -149q0 -10 -10 -10q-35 0 -59 -24t-24 -59q0 -37 23.5 -60t61.5 -23q10 0 10 -10v-112q0 -43 25.5 -71.5t66.5 -28.5t66.5 28.5t25.5 71.5v112q0 10 10 10h67
q10 0 10 -10v-114zM463 412q0 -49 -39 -66l-17 -7q-43 -18 -56 -53q-12 34 -56 53l-17 7q-17 8 -28 25.5t-11 40.5q0 28 15 46.5t39 18.5q45 0 58 -55v0q14 55 58 55q24 0 39 -18t15 -47zM517 842q0 42 -46 61l-106 43l-106 -43q-46 -19 -46 -61q0 -24 18.5 -44t42.5 -20
q11 0 52 18l39 17l39 -17q41 -18 52 -18q24 0 42.5 20t18.5 44zM365 769q-70 -31 -91 -31q-41 0 -71 32t-30 72q0 69 71 98l117 48h8l117 -48q71 -29 71 -98q0 -40 -30 -72t-71 -32q-21 0 -91 31zM456 758q33 0 57 26t24 58q0 56 -58 80l-114 46l-114 -46q-58 -24 -58 -80
q0 -32 24 -58t57 -26q13 0 52 16.5t43 14.5q72 -31 87 -31z" />
    <glyph glyph-name="Ecircumflex" unicode="&#xca;" horiz-adv-x="501" 
d="M461 69q0 28 -18.5 48.5t-52.5 20.5h-200v92h179q34 0 54 22q19 19 19 47t-19 48.5t-54 20.5h-179v122h193q37 0 57.5 21t20.5 54t-20.5 54t-57.5 21h-193q-2 34 -22.5 53t-52.5 19q-33 0 -54 -20.5t-21 -57.5v-556q0 -37 21 -57.5t54 -20.5h275q33 0 53 22q18 19 18 47z
M115 -40q-50 0 -82.5 32.5t-32.5 85.5v556q0 53 32.5 85.5t82.5 32.5q81 0 107 -72h161q53 0 85.5 -32.5t32.5 -82.5t-32.5 -82.5t-85.5 -32.5h-153v-42h139q52 0 84 -34q29 -31 29 -75q0 -43 -29 -75q-33 -34 -84 -34h-139v-12h160q52 0 83 -34q28 -31 28 -75
q0 -43 -28 -74q-32 -35 -83 -35h-275zM115 -20h275q42 0 68 28q23 26 23 61q0 36 -24 62.5t-67 26.5h-170q-10 0 -10 10v32q0 10 10 10h149q43 0 68 27t25 62q0 36 -24.5 62.5t-68.5 26.5h-149q-10 0 -10 10v62q0 10 10 10h163q45 0 71.5 27t26.5 68t-26.5 68t-71.5 27h-168
q-6 0 -16 19q-12 23 -25 34q-22 19 -59 19q-42 0 -68.5 -26.5t-26.5 -71.5v-556q0 -45 26.5 -71.5t68.5 -26.5zM444 822q0 42 -46 61l-106 43l-106 -43q-46 -19 -46 -61q0 -24 18.5 -44t42.5 -20q11 0 52 18l39 17l39 -17q41 -18 52 -18q24 0 42.5 20t18.5 44zM292 749
q-70 -31 -91 -31q-41 0 -71 32t-30 72q0 69 71 98l117 48h8l117 -48q71 -29 71 -98q0 -40 -30 -72t-71 -32q-21 0 -91 31zM383 738q33 0 57 26t24 58q0 56 -58 80l-114 46l-114 -46q-58 -24 -58 -80q0 -32 24 -58t57 -26q13 0 52 16.5t43 14.5q72 -31 87 -31z" />
    <glyph glyph-name="Aacute" unicode="&#xc1;" horiz-adv-x="597" 
d="M556 78v556q0 37 -20.5 57.5t-54.5 20.5h-195q-68 0 -108 -42q-43 -44 -43 -122v-200h-32q-27 0 -45 -18t-18 -45q0 -63 63 -63h32v-142q0 -36 20 -58t52 -22t52 22t20 58v142h127v-144q0 -37 21 -57.5t54 -20.5q34 0 54.5 20.5t20.5 57.5zM366 78v104h-47v-102
q0 -51 -31 -85.5t-81 -34.5t-81 34.5t-31 85.5v102q-42 4 -68.5 32t-26.5 71q0 41 26.5 70t66.5 33l2 160q1 94 53.5 149t137.5 55h195q50 0 82.5 -32.5t32.5 -85.5v-556q0 -53 -32.5 -85.5t-82.5 -32.5q-49 0 -82 32.5t-33 85.5zM386 78q0 -45 27 -71.5t68 -26.5
q42 0 68.5 26.5t26.5 71.5v556q0 45 -26.5 71.5t-68.5 26.5h-195q-92 0 -134 -63q-32 -49 -38 -142q-1 -75 -1 -149q0 -10 -10 -10q-35 0 -59 -24t-24 -59q0 -37 23.5 -60t61.5 -23q10 0 10 -10v-112q0 -43 25.5 -71.5t66.5 -28.5t66.5 28.5t25.5 71.5v112q0 10 10 10h67
q10 0 10 -10v-114zM463 412q0 -49 -39 -66l-17 -7q-43 -18 -56 -53q-12 34 -56 53l-17 7q-17 8 -28 25.5t-11 40.5q0 28 15 46.5t39 18.5q45 0 58 -55v0q14 55 58 55q24 0 39 -18t15 -47zM484 893q0 22 -16.5 42t-37.5 20q-14 0 -38 -10l-126 -52q-28 -14 -28 -40
q0 -27 15.5 -50t37.5 -23q14 0 40 10l112 44q41 16 41 59zM345 753q-32 -13 -54 -13q-44 0 -71 41q-22 34 -22 72q0 51 50 76l9 4q125 62 173 62q41 0 69 -36q25 -31 25 -66q0 -70 -67 -96zM338 771l112 44q54 21 54 78q0 28 -21.5 55t-52.5 27q-18 0 -46 -11l-119 -49
q-47 -19 -47 -62q0 -33 18 -61q22 -32 55 -32q18 0 47 11z" />
    <glyph glyph-name="Edieresis" unicode="&#xcb;" horiz-adv-x="501" 
d="M461 69q0 28 -18.5 48.5t-52.5 20.5h-200v92h179q34 0 54 22q19 19 19 47t-19 48.5t-54 20.5h-179v122h193q37 0 57.5 21t20.5 54t-20.5 54t-57.5 21h-193q-2 34 -22.5 53t-52.5 19q-33 0 -54 -20.5t-21 -57.5v-556q0 -37 21 -57.5t54 -20.5h275q33 0 53 22q18 19 18 47z
M115 -40q-50 0 -82.5 32.5t-32.5 85.5v556q0 53 32.5 85.5t82.5 32.5q81 0 107 -72h161q53 0 85.5 -32.5t32.5 -82.5t-32.5 -82.5t-85.5 -32.5h-153v-42h139q52 0 84 -34q29 -31 29 -75q0 -43 -29 -75q-33 -34 -84 -34h-139v-12h160q52 0 83 -34q28 -31 28 -75
q0 -43 -28 -74q-32 -35 -83 -35h-275zM115 -20h275q42 0 68 28q23 26 23 61q0 36 -24 62.5t-67 26.5h-170q-10 0 -10 10v32q0 10 10 10h149q43 0 68 27t25 62q0 36 -24.5 62.5t-68.5 26.5h-149q-10 0 -10 10v62q0 10 10 10h163q45 0 71.5 27t26.5 68t-26.5 68t-71.5 27h-168
q-6 0 -16 19q-12 23 -25 34q-22 19 -59 19q-42 0 -68.5 -26.5t-26.5 -71.5v-556q0 -45 26.5 -71.5t68.5 -26.5zM271 847q0 -38 27 -65t65 -27t65 27t27 65t-27 65t-65 27t-65 -27t-27 -65zM31 847q0 47 32.5 79.5t79.5 32.5q41 0 72 -26t38 -65q7 39 38 65t72 26
q47 0 79.5 -32.5t32.5 -79.5t-32.5 -79.5t-79.5 -32.5q-41 0 -72 26t-38 65q-7 -39 -38 -65t-72 -26q-47 0 -79.5 32.5t-32.5 79.5zM51 847q0 -38 27 -65t65 -27t65 27t27 65t-27 65t-65 27t-65 -27t-27 -65zM435 847q0 30 -21 51t-51 21t-51 -21t-21 -51t21 -51t51 -21
t51 21t21 51zM215 847q0 30 -21 51t-51 21t-51 -21t-21 -51t21 -51t51 -21t51 21t21 51z" />
    <glyph glyph-name="Egrave" unicode="&#xc8;" horiz-adv-x="501" 
d="M461 69q0 28 -18.5 48.5t-52.5 20.5h-200v92h179q34 0 54 22q19 19 19 47t-19 48.5t-54 20.5h-179v122h193q37 0 57.5 21t20.5 54t-20.5 54t-57.5 21h-193q-2 34 -22.5 53t-52.5 19q-33 0 -54 -20.5t-21 -57.5v-556q0 -37 21 -57.5t54 -20.5h275q33 0 53 22q18 19 18 47z
M115 -40q-50 0 -82.5 32.5t-32.5 85.5v556q0 53 32.5 85.5t82.5 32.5q81 0 107 -72h161q53 0 85.5 -32.5t32.5 -82.5t-32.5 -82.5t-85.5 -32.5h-153v-42h139q52 0 84 -34q29 -31 29 -75q0 -43 -29 -75q-33 -34 -84 -34h-139v-12h160q52 0 83 -34q28 -31 28 -75
q0 -43 -28 -74q-32 -35 -83 -35h-275zM115 -20h275q42 0 68 28q23 26 23 61q0 36 -24 62.5t-67 26.5h-170q-10 0 -10 10v32q0 10 10 10h149q43 0 68 27t25 62q0 36 -24.5 62.5t-68.5 26.5h-149q-10 0 -10 10v62q0 10 10 10h163q45 0 71.5 27t26.5 68t-26.5 68t-71.5 27h-168
q-6 0 -16 19q-12 23 -25 34q-22 19 -59 19q-42 0 -68.5 -26.5t-26.5 -71.5v-556q0 -45 26.5 -71.5t68.5 -26.5zM407 822q0 26 -28 40l-8 4l-118 48q-25 10 -38 10q-21 0 -37.5 -20.5t-16.5 -41.5q0 -43 41 -59l112 -44q25 -10 40 -10q22 0 37.5 22.5t15.5 50.5zM344 708
q-14 0 -79 25q-60 22 -76 30q-68 36 -68 99q0 34 25 66q28 36 69 36q48 0 172 -62l10 -5q50 -24 50 -75q0 -39 -22 -73q-27 -40 -71 -40zM344 728l10 1q33 0 54 32q19 28 19 61q0 38 -39 57l-8 5l-119 48q-29 12 -46 12q-31 0 -54 -29q-20 -25 -20 -53q0 -52 61 -83
q52 -20 105 -39q29 -12 37 -12z" />
    <glyph glyph-name="Iacute" unicode="&#xcd;" horiz-adv-x="306" 
d="M265 647q0 28 -15.5 46.5t-39.5 18.5q-43 0 -57 -55h-1q-12 55 -58 55q-24 0 -39 -18.5t-15 -46.5q0 -23 11.5 -41t27.5 -25l17 -7q44 -19 57 -53q12 34 56 53l16 7q40 17 40 66zM225 80v414q0 31 -16 53q-16 -12 -31 -23q-20 -14 -25 -30q-6 16 -25 30q-16 11 -32 23
q-15 -22 -15 -53v-414q0 -36 20 -58t52 -22q31 0 51.5 22t20.5 58zM209 547zM41 80v414q0 27 12 54q-24 12 -39 43q-14 28 -14 56q0 42 25.5 73.5t68.5 31.5q33 0 59 -21q22 21 57 21q44 0 71 -33q24 -30 24 -72q0 -63 -54 -96q14 -28 14 -57v-414q0 -51 -31.5 -85.5
t-80.5 -34.5q-50 0 -81 34.5t-31 85.5zM61 80q0 -43 25.5 -71.5t66.5 -28.5q40 0 66 28.5t26 71.5v414q0 27 -16 56q-2 2 -2 5q0 5 15 15q19 12 28 24q15 21 15 53q0 35 -20.5 60t-54.5 25q-21 0 -38.5 -12.5t-19.5 -12.5q-3 0 -6 3q-21 22 -52 22q-33 0 -53.5 -25
t-20.5 -60q0 -25 14 -51t36 -34q11 -3 6 -14q-15 -28 -15 -54v-414zM286 890q0 22 -16.5 42t-37.5 20q-14 0 -38 -10l-126 -52q-28 -14 -28 -40q0 -27 15.5 -50t37.5 -23q14 0 40 10l112 44q41 16 41 59zM147 750q-32 -13 -54 -13q-44 0 -71 41q-22 34 -22 72q0 51 50 76
l9 4q125 62 173 62q41 0 69 -36q25 -31 25 -66q0 -70 -67 -96zM140 768l112 44q54 21 54 78q0 28 -21.5 55t-52.5 27q-18 0 -46 -11l-119 -49q-47 -19 -47 -62q0 -33 18 -61q22 -32 55 -32q18 0 47 11z" />
    <glyph glyph-name="Icircumflex" unicode="&#xce;" horiz-adv-x="336" 
d="M295 647q0 28 -15.5 46.5t-39.5 18.5q-43 0 -57 -55h-1q-12 55 -58 55q-24 0 -39 -18.5t-15 -46.5q0 -23 11.5 -41t27.5 -25l17 -7q44 -19 57 -53q12 34 56 53l16 7q40 17 40 66zM255 80v414q0 31 -16 53q-16 -12 -31 -23q-20 -14 -25 -30q-6 16 -25 30q-16 11 -32 23
q-15 -22 -15 -53v-414q0 -36 20 -58t52 -22q31 0 51.5 22t20.5 58zM239 547zM71 80v414q0 27 12 54q-24 12 -39 43q-14 28 -14 56q0 42 25.5 73.5t68.5 31.5q33 0 59 -21q22 21 57 21q44 0 71 -33q24 -30 24 -72q0 -63 -54 -96q14 -28 14 -57v-414q0 -51 -31.5 -85.5
t-80.5 -34.5q-50 0 -81 34.5t-31 85.5zM91 80q0 -43 25.5 -71.5t66.5 -28.5q40 0 66 28.5t26 71.5v414q0 27 -16 56q-2 2 -2 5q0 5 15 15q19 12 28 24q15 21 15 53q0 35 -20.5 60t-54.5 25q-21 0 -38.5 -12.5t-19.5 -12.5q-3 0 -6 3q-21 22 -52 22q-33 0 -53.5 -25
t-20.5 -60q0 -25 14 -51t36 -34q11 -3 6 -14q-15 -28 -15 -54v-414zM342 842q0 42 -46 61l-106 43l-106 -43q-46 -19 -46 -61q0 -24 18.5 -44t42.5 -20q11 0 52 18l39 17l39 -17q41 -18 52 -18q24 0 42.5 20t18.5 44zM190 769q-70 -31 -91 -31q-41 0 -71 32t-30 72
q0 69 71 98l117 48h8l117 -48q71 -29 71 -98q0 -40 -30 -72t-71 -32q-21 0 -91 31zM281 758q33 0 57 26t24 58q0 56 -58 80l-114 46l-114 -46q-58 -24 -58 -80q0 -32 24 -58t57 -26q13 0 52 16.5t43 14.5q72 -31 87 -31z" />
    <glyph glyph-name="Idieresis" unicode="&#xcf;" horiz-adv-x="424" 
d="M338 647q0 28 -15.5 46.5t-39.5 18.5q-43 0 -57 -55h-1q-12 55 -58 55q-24 0 -39 -18.5t-15 -46.5q0 -23 11.5 -41t27.5 -25l17 -7q44 -19 57 -53q12 34 56 53l16 7q40 17 40 66zM298 80v414q0 31 -16 53q-16 -12 -31 -23q-20 -14 -25 -30q-6 16 -25 30q-16 11 -32 23
q-15 -22 -15 -53v-414q0 -36 20 -58t52 -22q31 0 51.5 22t20.5 58zM282 547zM114 80v414q0 27 12 54q-24 12 -39 43q-14 28 -14 56q0 42 25.5 73.5t68.5 31.5q33 0 59 -21q22 21 57 21q44 0 71 -33q24 -30 24 -72q0 -63 -54 -96q14 -28 14 -57v-414q0 -51 -31.5 -85.5
t-80.5 -34.5q-50 0 -81 34.5t-31 85.5zM134 80q0 -43 25.5 -71.5t66.5 -28.5q40 0 66 28.5t26 71.5v414q0 27 -16 56q-2 2 -2 5q0 5 15 15q19 12 28 24q15 21 15 53q0 35 -20.5 60t-54.5 25q-21 0 -38.5 -12.5t-19.5 -12.5q-3 0 -6 3q-21 22 -52 22q-33 0 -53.5 -25
t-20.5 -60q0 -25 14 -51t36 -34q11 -3 6 -14q-15 -28 -15 -54v-414zM239 847q0 -38 27 -65t65 -27t65 27t27 65t-27 65t-65 27t-65 -27t-27 -65zM-1 847q0 47 32.5 79.5t79.5 32.5q41 0 72 -26t38 -65q7 39 38 65t72 26q47 0 79.5 -32.5t32.5 -79.5t-32.5 -79.5t-79.5 -32.5
q-41 0 -72 26t-38 65q-7 -39 -38 -65t-72 -26q-47 0 -79.5 32.5t-32.5 79.5zM19 847q0 -38 27 -65t65 -27t65 27t27 65t-27 65t-65 27t-65 -27t-27 -65zM403 847q0 30 -21 51t-51 21t-51 -21t-21 -51t21 -51t51 -21t51 21t21 51zM183 847q0 30 -21 51t-51 21t-51 -21
t-21 -51t21 -51t51 -21t51 21t21 51z" />
    <glyph glyph-name="Igrave" unicode="&#xcc;" horiz-adv-x="314" 
d="M265 647q0 28 -15.5 46.5t-39.5 18.5q-43 0 -57 -55h-1q-12 55 -58 55q-24 0 -39 -18.5t-15 -46.5q0 -23 11.5 -41t27.5 -25l17 -7q44 -19 57 -53q12 34 56 53l16 7q40 17 40 66zM225 80v414q0 31 -16 53q-16 -12 -31 -23q-20 -14 -25 -30q-6 16 -25 30q-16 11 -32 23
q-15 -22 -15 -53v-414q0 -36 20 -58t52 -22q31 0 51.5 22t20.5 58zM209 547zM41 80v414q0 27 12 54q-24 12 -39 43q-14 28 -14 56q0 42 25.5 73.5t68.5 31.5q33 0 59 -21q22 21 57 21q44 0 71 -33q24 -30 24 -72q0 -63 -54 -96q14 -28 14 -57v-414q0 -51 -31.5 -85.5
t-80.5 -34.5q-50 0 -81 34.5t-31 85.5zM61 80q0 -43 25.5 -71.5t66.5 -28.5q40 0 66 28.5t26 71.5v414q0 27 -16 56q-2 2 -2 5q0 5 15 15q19 12 28 24q15 21 15 53q0 35 -20.5 60t-54.5 25q-21 0 -38.5 -12.5t-19.5 -12.5q-3 0 -6 3q-21 22 -52 22q-33 0 -53.5 -25
t-20.5 -60q0 -25 14 -51t36 -34q11 -3 6 -14q-15 -28 -15 -54v-414zM295 852q0 26 -28 40l-8 4l-118 48q-25 10 -38 10q-21 0 -37.5 -20.5t-16.5 -41.5q0 -43 41 -59l112 -44q25 -10 40 -10q22 0 37.5 22.5t15.5 50.5zM232 738q-14 0 -79 25q-60 22 -76 30q-68 36 -68 99
q0 34 25 66q28 36 69 36q48 0 172 -62l10 -5q50 -24 50 -75q0 -39 -22 -73q-27 -40 -71 -40zM232 758l10 1q33 0 54 32q19 28 19 61q0 38 -39 57l-8 5l-119 48q-29 12 -46 12q-31 0 -54 -29q-20 -25 -20 -53q0 -52 61 -83q52 -20 105 -39q29 -12 37 -12z" />
    <glyph glyph-name="Oacute" unicode="&#xd3;" horiz-adv-x="805" 
d="M400 720q10 9 29.5 18t29.5 9q166 0 265 -141q79 -114 79 -244q0 -100 -51 -188q-57 -98 -162 -143q-12 -11 -185 -85q-7 -3 -127 52q-18 7 -49 25q-106 46 -167 133q-63 91 -63 206q0 128 78 242q98 143 266 143q24 0 57 -27zM412 703v0l-16 -6q-38 30 -53 30
q-157 0 -250 -134q-74 -108 -74 -231q0 -109 60 -195q58 -82 159 -126l3 -1q12 -10 160 -74q82 34 176 80l3 2q100 43 155 136q48 82 48 178q0 124 -76 232q-93 133 -248 133q-6 0 -25 -9t-22 -15zM763 362q0 118 -72 221q-87 124 -232 124q-11 0 -31 -16.5t-28 -18.5
q-8 2 -27 18.5t-30 16.5q-146 0 -233 -126q-71 -102 -71 -219q0 -103 55.5 -182t151.5 -121q-31 8 155 -71q88 38 133 58q31 15 38 19v2q94 40 145 127q46 78 46 168zM513 362q0 -49 -39 -66l-17 -7q-43 -18 -56 -53q-12 34 -56 53l-17 7q-17 8 -28 25.5t-11 40.5
q0 28 15 46.5t39 18.5q45 0 58 -55v0q14 55 58 55q24 0 39 -18t15 -47zM600 893q0 22 -16.5 42t-37.5 20q-14 0 -38 -10l-126 -52q-28 -14 -28 -40q0 -27 15.5 -50t37.5 -23q14 0 40 10l112 44q41 16 41 59zM461 753q-32 -13 -54 -13q-44 0 -71 41q-22 34 -22 72q0 51 50 76
l9 4q125 62 173 62q41 0 69 -36q25 -31 25 -66q0 -70 -67 -96zM454 771l112 44q54 21 54 78q0 28 -21.5 55t-52.5 27q-18 0 -46 -11l-119 -49q-47 -19 -47 -62q0 -33 18 -61q22 -32 55 -32q18 0 47 11z" />
    <glyph glyph-name="Ocircumflex" unicode="&#xd4;" horiz-adv-x="803" 
d="M400 720q10 9 29.5 18t29.5 9q166 0 265 -141q79 -114 79 -244q0 -100 -51 -188q-57 -98 -162 -143q-12 -11 -185 -85q-7 -3 -127 52q-18 7 -49 25q-106 46 -167 133q-63 91 -63 206q0 128 78 242q98 143 266 143q24 0 57 -27zM412 703v0l-16 -6q-38 30 -53 30
q-157 0 -250 -134q-74 -108 -74 -231q0 -109 60 -195q58 -82 159 -126l3 -1q12 -10 160 -74q82 34 176 80l3 2q100 43 155 136q48 82 48 178q0 124 -76 232q-93 133 -248 133q-6 0 -25 -9t-22 -15zM763 362q0 118 -72 221q-87 124 -232 124q-11 0 -31 -16.5t-28 -18.5
q-8 2 -27 18.5t-30 16.5q-146 0 -233 -126q-71 -102 -71 -219q0 -103 55.5 -182t151.5 -121q-31 8 155 -71q88 38 133 58q31 15 38 19v2q94 40 145 127q46 78 46 168zM513 362q0 -49 -39 -66l-17 -7q-43 -18 -56 -53q-12 34 -56 53l-17 7q-17 8 -28 25.5t-11 40.5
q0 28 15 46.5t39 18.5q45 0 58 -55v0q14 55 58 55q24 0 39 -18t15 -47zM553 832q0 42 -46 61l-106 43l-106 -43q-46 -19 -46 -61q0 -24 18.5 -44t42.5 -20q11 0 52 18l39 17l39 -17q41 -18 52 -18q24 0 42.5 20t18.5 44zM401 759q-70 -31 -91 -31q-41 0 -71 32t-30 72
q0 69 71 98l117 48h8l117 -48q71 -29 71 -98q0 -40 -30 -72t-71 -32q-21 0 -91 31zM492 748q33 0 57 26t24 58q0 56 -58 80l-114 46l-114 -46q-58 -24 -58 -80q0 -32 24 -58t57 -26q13 0 52 16.5t43 14.5q72 -31 87 -31z" />
    <glyph glyph-name="Ograve" unicode="&#xd2;" horiz-adv-x="803" 
d="M400 720q10 9 29.5 18t29.5 9q166 0 265 -141q79 -114 79 -244q0 -100 -51 -188q-57 -98 -162 -143q-12 -11 -185 -85q-7 -3 -127 52q-18 7 -49 25q-106 46 -167 133q-63 91 -63 206q0 128 78 242q98 143 266 143q24 0 57 -27zM412 703v0l-16 -6q-38 30 -53 30
q-157 0 -250 -134q-74 -108 -74 -231q0 -109 60 -195q58 -82 159 -126l3 -1q12 -10 160 -74q82 34 176 80l3 2q100 43 155 136q48 82 48 178q0 124 -76 232q-93 133 -248 133q-6 0 -25 -9t-22 -15zM763 362q0 118 -72 221q-87 124 -232 124q-11 0 -31 -16.5t-28 -18.5
q-8 2 -27 18.5t-30 16.5q-146 0 -233 -126q-71 -102 -71 -219q0 -103 55.5 -182t151.5 -121q-31 8 155 -71q88 38 133 58q31 15 38 19v2q94 40 145 127q46 78 46 168zM513 362q0 -49 -39 -66l-17 -7q-43 -18 -56 -53q-12 34 -56 53l-17 7q-17 8 -28 25.5t-11 40.5
q0 28 15 46.5t39 18.5q45 0 58 -55v0q14 55 58 55q24 0 39 -18t15 -47zM516 842q0 26 -28 40l-8 4l-118 48q-25 10 -38 10q-21 0 -37.5 -20.5t-16.5 -41.5q0 -43 41 -59l112 -44q25 -10 40 -10q22 0 37.5 22.5t15.5 50.5zM453 728q-14 0 -79 25q-60 22 -76 30q-68 36 -68 99
q0 34 25 66q28 36 69 36q48 0 172 -62l10 -5q50 -24 50 -75q0 -39 -22 -73q-27 -40 -71 -40zM453 748l10 1q33 0 54 32q19 28 19 61q0 38 -39 57l-8 5l-119 48q-29 12 -46 12q-31 0 -54 -29q-20 -25 -20 -53q0 -52 61 -83q52 -20 105 -39q29 -12 37 -12z" />
    <glyph glyph-name="Uacute" unicode="&#xda;" horiz-adv-x="553" 
d="M513 36v596q0 36 -20 58t-52 22t-52 -22t-20 -58v-413q0 -43 -24.5 -71t-67.5 -28q-41 0 -67.5 25.5t-26.5 73.5v413q0 36 -20 58t-52 22t-52 -22t-20 -58v-438q0 -90 55 -142t142 -52q96 0 139 59v-50q8 -53 66 -53q32 0 52 22t20 58zM236 -40q-103 0 -170 63.5
t-67 170.5v438q0 51 31 85.5t81 34.5t81 -34.5t31 -85.5v-413q0 -59 54 -59q52 0 52 59v413q0 51 31 85.5t81 34.5t81 -34.5t31 -85.5v-596q0 -51 -31 -85.5t-81 -34.5q-75 0 -100 64q-43 -20 -105 -20zM236 -20q64 0 106 23q12 7 15 -6q16 -61 84 -61q40 0 66 28.5t26 71.5
v596q0 43 -26 71.5t-66 28.5q-41 0 -66.5 -28.5t-25.5 -71.5v-413q0 -79 -72 -79q-74 0 -74 79v413q0 43 -26 71.5t-66 28.5q-41 0 -66.5 -28.5t-25.5 -71.5v-438q0 -98 61 -156t156 -58zM441 876q0 22 -16.5 42t-37.5 20q-14 0 -38 -10l-126 -52q-28 -14 -28 -40
q0 -27 15.5 -50t37.5 -23q14 0 40 10l112 44q41 16 41 59zM302 736q-32 -13 -54 -13q-44 0 -71 41q-22 34 -22 72q0 51 50 76l9 4q125 62 173 62q41 0 69 -36q25 -31 25 -66q0 -70 -67 -96zM295 754l112 44q54 21 54 78q0 28 -21.5 55t-52.5 27q-18 0 -46 -11l-119 -49
q-47 -19 -47 -62q0 -33 18 -61q22 -32 55 -32q18 0 47 11z" />
    <glyph glyph-name="Ucircumflex" unicode="&#xdb;" horiz-adv-x="553" 
d="M513 36v596q0 36 -20 58t-52 22t-52 -22t-20 -58v-413q0 -43 -24.5 -71t-67.5 -28q-41 0 -67.5 25.5t-26.5 73.5v413q0 36 -20 58t-52 22t-52 -22t-20 -58v-438q0 -90 55 -142t142 -52q96 0 139 59v-50q8 -53 66 -53q32 0 52 22t20 58zM236 -40q-103 0 -170 63.5
t-67 170.5v438q0 51 31 85.5t81 34.5t81 -34.5t31 -85.5v-413q0 -59 54 -59q52 0 52 59v413q0 51 31 85.5t81 34.5t81 -34.5t31 -85.5v-596q0 -51 -31 -85.5t-81 -34.5q-75 0 -100 64q-43 -20 -105 -20zM236 -20q64 0 106 23q12 7 15 -6q16 -61 84 -61q40 0 66 28.5t26 71.5
v596q0 43 -26 71.5t-66 28.5q-41 0 -66.5 -28.5t-25.5 -71.5v-413q0 -79 -72 -79q-74 0 -74 79v413q0 43 -26 71.5t-66 28.5q-41 0 -66.5 -28.5t-25.5 -71.5v-438q0 -98 61 -156t156 -58zM431 831q0 42 -46 61l-106 43l-106 -43q-46 -19 -46 -61q0 -24 18.5 -44t42.5 -20
q11 0 52 18l39 17l39 -17q41 -18 52 -18q24 0 42.5 20t18.5 44zM279 758q-70 -31 -91 -31q-41 0 -71 32t-30 72q0 69 71 98l117 48h8l117 -48q71 -29 71 -98q0 -40 -30 -72t-71 -32q-21 0 -91 31zM370 747q33 0 57 26t24 58q0 56 -58 80l-114 46l-114 -46q-58 -24 -58 -80
q0 -32 24 -58t57 -26q13 0 52 16.5t43 14.5q72 -31 87 -31z" />
    <glyph glyph-name="Ugrave" unicode="&#xd9;" horiz-adv-x="553" 
d="M513 36v596q0 36 -20 58t-52 22t-52 -22t-20 -58v-413q0 -43 -24.5 -71t-67.5 -28q-41 0 -67.5 25.5t-26.5 73.5v413q0 36 -20 58t-52 22t-52 -22t-20 -58v-438q0 -90 55 -142t142 -52q96 0 139 59v-50q8 -53 66 -53q32 0 52 22t20 58zM236 -40q-103 0 -170 63.5
t-67 170.5v438q0 51 31 85.5t81 34.5t81 -34.5t31 -85.5v-413q0 -59 54 -59q52 0 52 59v413q0 51 31 85.5t81 34.5t81 -34.5t31 -85.5v-596q0 -51 -31 -85.5t-81 -34.5q-75 0 -100 64q-43 -20 -105 -20zM236 -20q64 0 106 23q12 7 15 -6q16 -61 84 -61q40 0 66 28.5t26 71.5
v596q0 43 -26 71.5t-66 28.5q-41 0 -66.5 -28.5t-25.5 -71.5v-413q0 -79 -72 -79q-74 0 -74 79v413q0 43 -26 71.5t-66 28.5q-41 0 -66.5 -28.5t-25.5 -71.5v-438q0 -98 61 -156t156 -58zM377 839q0 26 -28 40l-8 4l-118 48q-25 10 -38 10q-21 0 -37.5 -20.5t-16.5 -41.5
q0 -43 41 -59l112 -44q25 -10 40 -10q22 0 37.5 22.5t15.5 50.5zM314 725q-14 0 -79 25q-60 22 -76 30q-68 36 -68 99q0 34 25 66q28 36 69 36q48 0 172 -62l10 -5q50 -24 50 -75q0 -39 -22 -73q-27 -40 -71 -40zM314 745l10 1q33 0 54 32q19 28 19 61q0 38 -39 57l-8 5
l-119 48q-29 12 -46 12q-31 0 -54 -29q-20 -25 -20 -53q0 -52 61 -83q52 -20 105 -39q29 -12 37 -12z" />
  </font>
</defs>
</svg>
